На всех торрентах на трекере установлена скидка на скачивание в размере 100 процентов(а).
 Возможность скачивания торрента НЕ зависит от ограничений при низком ратио, низком аплоаде, требуемом ратио или требуемом аплоаде.


Начать новую тему Ответить на тему
Статистика раздачи
Размер: 440.74 МБ | Добавлен: 11 июн 2018, 22:24 | Скачали: 0
Сидеров: 1  [0 байт/сек]    Личеров: 0  [0 байт/сек]
Пред. тема | След. тема 

Автор
Сообщение

СообщениеДобавлено: 11 июн 2018, 22:24 

Ответить с цитатой 

Enigma
MCMXC a.D.
Жанр: New Age, Downtempo, Ambient
Издание: Virgin, Universal Music - 5367192
Продолжительность: 00:40:14

Кодек: FLAC
Битрейт: Lossless|24Bit
Тип рипа: tracks

Треклист:


01. The Voice Of Enigma (02:21)
02. Principles Of Lust: Sadeness / Find Love / Sadeness (Reprise) - Medley (11:43)
03. Callas Went Away (04:29)
04. Mea Culpa (05:01)
05. The Voice And The Snake (01:41)
06. Knocking On Forbidden Doors (04:23)
07. Back To The Rivers Of Belief: Way To Eternity / Hallelujah / The Rivers Of Belief - Medley (10:36)
Код:
16908378[0x102005a]: SACD-Ripper Version 0.21
16908378[0x102005a]: disc inserted..
16908378[0x102005a]: config: 00 00 00 0c 00 00 00 10 ff 41 01 04 00 00 00 00
16908378[0x102005a]: config: 00 00 00 00 00 00 00 00 00 00 00 00 00 00 00 00
16908378[0x102005a]: config: 00 00 00 00 00 00 00 00 00 00 00 00 00 00 00 00
16908378[0x102005a]: config: 00 00 00 00 00 00 00 00 00 00 00 00 00 00 00 00
16908378[0x102005a]: device_info: 75 6e 6e 61 6d 65 5c d0 80 00 00 00 00 53 a0 00
16908378[0x102005a]: device_info: 80 00 00 00 10 13 9e 70 80 00 00 00 00 5d c4 00
16908378[0x102005a]: device_info: 00 00 00 00 00 00 00 00 00 00 00 00 00 0c eb 50
16908378[0x102005a]: device_info: 00 00 08 00 00 00 00 01 00 01 01 00 00 00 00 01
16908378[0x102005a]: Album Title: MCMXC a.D. - SACD
16908378[0x102005a]: Album Artist: 1991 Virgin Music
16908378[0x102005a]: Disc Version: 01.20
16908378[0x102005a]: config: 00 00 00 0c 00 00 00 10 ff 41 01 04 00 00 00 00
16908378[0x102005a]: config: 00 00 00 00 00 00 00 00 00 00 00 00 00 00 00 00
16908378[0x102005a]: config: 00 00 00 00 00 00 00 00 00 00 00 00 00 00 00 00
16908378[0x102005a]: config: 00 00 00 00 00 00 00 00 00 00 00 00 00 00 00 00
16908378[0x102005a]: device_info: 75 6e 6e 61 6d 65 5c d0 80 00 00 00 00 53 a0 00
16908378[0x102005a]: device_info: 80 00 00 00 10 13 9e 70 80 00 00 00 00 5d c4 00
16908378[0x102005a]: device_info: 00 00 00 00 00 00 00 00 00 00 00 00 00 0c eb 50
16908378[0x102005a]: device_info: 00 00 08 00 00 00 00 01 00 01 01 00 00 00 00 01
16908378[0x102005a]: succeeded. raw_spu number is 0
16908378[0x102005a]: succeeded. entry d0
16908378[0x102005a]: Establishing the interrupt tag on the interrupt PPU thread.
16908378[0x102005a]: ioctl_report_key1[45112b01] 0
16908378[0x102005a]: sac_exec_generate_key 0 c9 0
16908378[0x102005a]: ioctl_send_key[2] c9 0
16908378[0x102005a]: ioctl_report_key[2] c8 0
16908378[0x102005a]: sac_exec_validate_key_1[0]
16908378[0x102005a]: sac_exec_generate_key_2[ae] 0
16908378[0x102005a]: ioctl_send_key[3] ae 0
16908378[0x102005a]: ioctl_report_key[3] b0 0
16908378[0x102005a]: sac_exec_validate_key_2[0]
16908378[0x102005a]: ioctl_report_key[4] 30 0
16908378[0x102005a]: sac_exec_validate_key_3[0]
16908378[0x102005a]: ioctl_report_finish [0xff] 0
16908378[0x102005a]: Queuing raw: /dev_usb000/1991 Virgin Music - MCMXC a.D. - SACD.iso, start_lsn: 0, length_lsn: 846672

Код:
foobar2000 1.1 / Dynamic Range Meter 1.1.1
log date: 2018-06-11 18:08:26

--------------------------------------------------------------------------------
Analyzed: Enigma / MCMXC a.D.
--------------------------------------------------------------------------------

DR         Peak         RMS     Duration Track
--------------------------------------------------------------------------------
DR12     -11.75 dB   -27.69 dB      2:21 ?-The Voice Of Enigma
DR14      -0.27 dB   -16.95 dB     11:43 ?-Principles Of Lust: Sadeness / Find Love / Sadeness (Reprise) - Medley
DR14      -0.08 dB   -17.83 dB      4:29 ?-Callas Went Away
DR12      -0.28 dB   -15.33 dB      5:01 ?-Mea Culpa
DR12      -7.24 dB   -23.83 dB      1:41 ?-The Voice And The Snake
DR13      -0.14 dB   -17.49 dB      4:23 ?-Knocking On Forbidden Doors
DR13      -0.26 dB   -16.87 dB     10:36 ?-Back To The Rivers Of Belief: Way To Eternity / Hallelujah / The Rivers Of Belief - Medley
--------------------------------------------------------------------------------

Number of tracks:  7
Official DR value: DR13

Samplerate:        44100 Hz
Channels:          2
Bits per sample:   24
Bitrate:           1510 kbps
Codec:             FLAC
================================================================================
Правила, инструкции, FAQ!!!
Торрент  Добавлен [11 июн 2018, 22:24] Скачать торрент Магнет ссылка
Скачать торрент
[ Размер 18.97 КБ / Просмотров 90 ]

Статус
Проверен 
 
Размер  440.74 МБ
Приватный: Нет (DHT включён)
.torrent скачан  0
Как залить торрент? | Как скачать Torrent? | Ошибка в торренте? Качайте магнет  


     Отправить личное сообщение
   
Страница 1 из 1
Показать сообщения за:  Поле сортировки  
Начать новую тему Ответить на тему

   Похожие торренты   Автор   Ответы   Просмотры   Последнее сообщение 
В этой теме нет новых непрочитанных сообщений. Скачать торрент Проверен Enigma - MCMXC a.D. (1990) [FLAC|Lossless|tracks + .cue] <Abstract, Ambient>

в форуме Instrumental/New Age/Meditative/Relax, Размер: 229.56 МБ, Здоровье: 100%

Гость

0
33|4

155
5

26 дек 2015, 22:36

Гость Перейти к последнему сообщению

В этой теме нет новых непрочитанных сообщений. Скачать торрент Проверен (New Age, Ambient) Enigma - MCMXC a.D. (The Limited Edition) [Vinyl Rip 24 bit - 96 kHz] - 1991, APE (tracks), lossless

в форуме Instrumental/New Age/Meditative/Relax, Размер: 1.17 ГБ, Здоровье: 100%

Anonymous

0
6|2

39
0

06 янв 2017, 19:53

Anonymous Перейти к последнему сообщению

В этой теме нет новых непрочитанных сообщений. Скачать торрент Проверен (Abstract, Ambient) Enigma - MCMXC a. D. - 1990, FLAC (image+.cue), lossless

в форуме Instrumental/New Age/Meditative/Relax, Размер: 232.18 МБ, Здоровье: 100%

Anonymous

0
29|8

72
3

06 янв 2017, 20:44

Anonymous Перейти к последнему сообщению

В этой теме нет новых непрочитанных сообщений. Скачать торрент Проверен (New Age, Ambient)[LP][24/192] Enigma – MCMXC A.D. - 1990, FLAC (image+.cue)

в форуме Зарубежная поп-музыка (оцифровки), Размер: 1.68 ГБ, Здоровье: 100%

Anonymous

0
10|3

24
2

22 янв 2018, 01:57

Anonymous Перейти к последнему сообщению

В этой теме нет новых непрочитанных сообщений. Скачать торрент Проверен Enigma - MCMXC a.D. (1990) [FLAC 2.0 24/192|image (Vinyl-Rip)]<Medieval, Abstract, Ambient>

в форуме Vinyl-Rip и Hand-Made, Размер: 1.6 ГБ, Здоровье: 100%

Гость

0
1797|25

562
63

08 фев 2015, 00:40

Гость Перейти к последнему сообщению



Сейчас этот форум просматривают: нет зарегистрированных пользователей и гости: 1


Вы не можете начинать темы
Вы не можете отвечать на сообщения
Вы не можете редактировать свои сообщения
Вы не можете удалять свои сообщения
Вы не можете добавлять вложения

Перейти:  
Ресурс не предоставляет электронные версии произведений, а занимается лишь коллекционированием и каталогизацией ссылок, присылаемых и публикуемых на форуме нашими читателями. Если вы являетесь правообладателем какого-либо представленного материала и не желаете чтобы ссылка на него находилась в нашем каталоге, свяжитесь с нами и мы незамедлительно удалим её. Файлы для обмена на трекере предоставлены пользователями сайта, и администрация не несёт ответственности за их содержание. Просьба не заливать файлы, защищенные авторскими правами, а также файлы нелегального содержания!