На всех торрентах на трекере установлена скидка на скачивание в размере 100 процентов(а).
 Возможность скачивания торрента НЕ зависит от ограничений при низком ратио, низком аплоаде, требуемом ратио или требуемом аплоаде.


Начать новую тему Ответить на тему
Статистика раздачи
Размер: 1.47 ГБ | Добавлен: 23 сен 2013, 16:02 | Скачали: 0
Сидеров: 1  [0 байт/сек]    Личеров: 0  [0 байт/сек]
Пред. тема | След. тема 

Автор
Сообщение

СообщениеДобавлено: 23 сен 2013, 16:02 

Ответить с цитатой 

Елена Троянская / Helen of Troy

Страна: США
Год выпуска: 2003
Жанр: Исторический, драма
Продолжительность: 02:47:49
Перевод: Профессиональный (многоголосый, закадровый)
Русские субтитры: нет

Режиссёр: Джон Кент Харрисон /John Kent Harrison

В ролях: Сиена Гиллори, Мэттью Марсден, Руфус Сьюэлл, Джон Риз-Дэйвис, Мэриам д'Або, Эмилия Фокс, Джеймс Коллис, Даниэль Лапэйн, Найджел Уитми, Стеллан Скарсгард, Джо Монтана, Мануэль Коши, Крэйг Келли

Описание:
Жена царя Спарты Менелая, по имени Елена, страстно полюбила прекрасного троянского принца Париса. Влюбленные убегают в Трою под защиту отца Париса, Царя Приама. Но родной брат преданного супругой Менелая, безжалостный Агамемнон, вместе с громадной армией Спарты отправляется за Еленой к величественным стенам Трои. После десятилетней осады грекам удается проникнуть в город с помощью знаменитого Троянского Коня: начинается эпохальная битва, которая решит судьбу двух империй...




Качество: DVDRip [DVD9]
Формат: AVI
Видео кодек: XviD
Аудио кодек: MP3
Видео: 656x368 (1.78:1), 25 fps, XviD build 73 ~1113 kbps avg, 0.18 bit/pixel
Аудио: 48 kHz, MPEG Layer 3, 2 ch, ~128.00 kbps avg

Раздача от:


D:Мои рипыHelen.of.Troy.DVDRip.dexter_lex.avi
General
Complete name : D:Мои рипыHelen.of.Troy.DVDRip.dexter_lex.avi
Format : AVI
Format/Info : Audio Video Interleave
File size : 1.47 GiB
Duration : 2h 47mn
Overall bit rate : 1 251 Kbps
Writing application : VirtualDubMod 1.5.10.3 | http://www.virtualdub-fr.org || (build 2550/release)
Writing library : VirtualDubMod build 2550/release
Video #0
ID : 0
Format : MPEG-4 Visual
Format profile : Advanced Simple@L5
Format settings, BVOP : 1
Format settings, QPel : No
Format settings, GMC : No warppoints
Format settings, Matrix : Custom
Codec ID : XVID
Codec ID/Hint : XviD
Duration : 2h 47mn
Bit rate : 1 113 Kbps
Width : 656 pixels
Height : 368 pixels
Display aspect ratio : 16:9
Frame rate : 25.000 fps
Color space : YUV
Chroma subsampling : 4:2:0
Bit depth : 8 bits
Scan type : Progressive
Compression mode : Lossy
Bits/(Pixel*Frame) : 0.184
Stream size : 1.31 GiB (89%)
Writing library : XviD 73
Audio #1
ID : 1
Format : MPEG Audio
Format version : Version 1
Format profile : Layer 3
Codec ID : 55
Codec ID/Hint : MP3
Duration : 2h 47mn
Bit rate mode : Constant
Bit rate : 128 Kbps
Channel(s) : 2 channels
Sampling rate : 48.0 KHz
Compression mode : Lossy
Stream size : 154 MiB (10%)
Alignment : Aligned on interleaves
Interleave, duration : 40 ms (1.00 video frame)
Interleave, preload duration : 504 ms
Writing library : LAME3.99r
Encoding settings : -m s -V 4 -q 2 -lowpass 17 -b 128
загрузка...
Правила, инструкции, FAQ!!!
Торрент  Добавлен [23 сен 2013, 16:02] Скачать торрент Магнет ссылка
Скачать торрент
[ Размер 15.3 КБ / Просмотров 33 ]

Статус  
 
Размер  1.47 ГБ
Приватный: Нет (DHT включён)
.torrent скачан  0
Как залить торрент? | Как скачать Torrent? | Ошибка в торренте? Качайте магнет  


     Отправить личное сообщение
   
Страница 1 из 1
Показать сообщения за:  Поле сортировки  
Начать новую тему Ответить на тему

   Похожие торренты   Автор   Ответы   Просмотры   Последнее сообщение 
В этой теме нет новых непрочитанных сообщений. Скачать торрент Елена Троянская / Helen of Troy (Джон Кент Харрисон /John Kent Harrison) [2003 г., Исторический, Драма, DVDRip]

в форуме Исторические, Размер: 2.25 ГБ, Здоровье: 100%

Anonymous

0
14|4

379
2

28 апр 2014, 22:40

Anonymous Перейти к последнему сообщению

В этой теме нет новых непрочитанных сообщений. Скачать торрент Проверен (Rock / Rhythm & Blues) Doris Troy - Doris Troy (1970) [2010 Remastered Apple Records Box Set], MP3, 320 kbps

в форуме Рок, Панк, Метал, Альтернатива, Размер: 209.46 МБ, Здоровье: 100%

Гость

0
13|2

62
2

05 май 2016, 23:47

Гость Перейти к последнему сообщению

В этой теме нет новых непрочитанных сообщений. Скачать торрент Проверен (rock, rhythm & blues) DORIS TROY - Doris Troy (записано на Apple, с участием G. Harrison и R. Starr) - 1970, APE (image+.cue)

в форуме Classic Rock & Hard Rock, Размер: 323 МБ, Здоровье: 100%

Anonymous

0
3|1

27
0

05 сен 2016, 21:26

Anonymous Перейти к последнему сообщению

В этой теме нет новых непрочитанных сообщений. Скачать торрент Проверен Разрушение Трои и приключения Одиссея / Destruction of Troy and Adventures of Odysseus (1998) DVDRip

в форуме Зарубежные мультфильмы, Размер: 1.46 ГБ, Здоровье: 100%

Anonymous

0
8|0

135
218

01 авг 2014, 16:26

Anonymous Перейти к последнему сообщению

В этой теме нет новых непрочитанных сообщений. Скачать торрент Проверен (New Age) Carsten Rosenlund, Helen Davies - She Moved Through the Fair - 2003, MP3, 208-228 kbps

в форуме Instrumental/New Age/Meditative/Relax, Размер: 112.06 МБ, Здоровье: 100%

Anonymous

0
1|0

8
0

21 фев 2018, 18:05

Anonymous Перейти к последнему сообщению



Сейчас этот форум просматривают: нет зарегистрированных пользователей и гости: 0


Вы не можете начинать темы
Вы не можете отвечать на сообщения
Вы не можете редактировать свои сообщения
Вы не можете удалять свои сообщения
Вы не можете добавлять вложения

Перейти:  
Ресурс не предоставляет электронные версии произведений, а занимается лишь коллекционированием и каталогизацией ссылок, присылаемых и публикуемых на форуме нашими читателями. Если вы являетесь правообладателем какого-либо представленного материала и не желаете чтобы ссылка на него находилась в нашем каталоге, свяжитесь с нами и мы незамедлительно удалим её. Файлы для обмена на трекере предоставлены пользователями сайта, и администрация не несёт ответственности за их содержание. Просьба не заливать файлы, защищенные авторскими правами, а также файлы нелегального содержания!
cron