На всех торрентах на трекере установлена скидка на скачивание в размере 100 процентов(а).
 Возможность скачивания торрента НЕ зависит от ограничений при низком ратио, низком аплоаде, требуемом ратио или требуемом аплоаде.


Начать новую тему Ответить на тему
Статистика раздачи
Размер: 505.11 МБ | Добавлен: 16 сен 2018, 18:48 | Скачали: 0
Сидеров: 0  [0 байт/сек]    Личеров: 0  [0 байт/сек]
Пред. тема | След. тема 

Автор
Сообщение

СообщениеДобавлено: 16 сен 2018, 18:48 

Ответить с цитатой 

The Ultimate European Dance Collection 3
Жанр: Electronic
Носитель: CD
Страна-производитель диска (релиза): Singapore
Год издания: 1993
Издатель (лейбл): VM Productions
Номер по каталогу: VMP 270493-2
Страна исполнителя (группы): Singapore
Аудиокодек: FLAC (*.flac)
Тип рипа: tracks+.cue
Битрейт аудио: lossless
Продолжительность: 01:08:56
Источник (релизер): CD
Наличие сканов в содержимом раздачи: да
Треклист:
01. Lou Sern - Swiss Boy
02. DJ Gang - Tarzan Boy
03. Eddy Huntington - USSR
04. Radiorama - Fire
05. Sabrina - Boys (Summer Love)
06. Alex C - Tonight All Night
07. Alex C - Fire
08. Sandy Politi - La Isla Bonita
09. Silent Circle - Touch in the Night
10. Joe Party - Ciao Amour (Dance Mix)
11. Danuta - Touch My Heart
12. Vanessa - Crazy For You
13. Mike Mareen - Dancing in the Dark
Код:
Exact Audio Copy V1.3 from 2. September 2016
EAC extraction logfile from 5. September 2018, 19:15
VA / The Ultimate European Dance Collection 3
Used drive  : HL-DT-STDVDROM DH40N   Adapter: 1  ID: 0
Read mode               : Secure
Utilize accurate stream : Yes
Defeat audio cache      : Yes
Make use of C2 pointers : No
Read offset correction                      : 6
Overread into Lead-In and Lead-Out          : No
Fill up missing offset samples with silence : Yes
Delete leading and trailing silent blocks   : No
Null samples used in CRC calculations       : Yes
Used interface                              : Native Win32 interface for Win NT & 2000
Gap handling                                : Appended to previous track
Used output format              : User Defined Encoder
Selected bitrate                : 1024 kBit/s
Quality                         : High
Add ID3 tag                     : No
Command line compressor         : C:\Program Files (x86)\Exact Audio Copy\Flac\flac.exe
Additional command line options : -8 -V -T "ARTIST=%artist%" -T "TITLE=%title%" -T "ALBUM=%albumtitle%" -T "DATE=%year%" -T "TRACKNUMBER=%tracknr%" -T "GENRE=%genre%" -T "PERFORMER=%albuminterpret%" -T "COMPOSER=%composer%" %haslyrics%--tag-from-file=LYRICS="%lyricsfile%"%haslyrics% -T "ALBUMARTIST=%albumartist%" -T "DISCNUMBER=%cdnumber%" -T "TOTALDISCS=%totalcds%" -T "TOTALTRACKS=%numtracks%" -T "COMMENT=FunkyRecords" %source% -o %dest%
TOC of the extracted CD
     Track |   Start  |  Length  | Start sector | End sector
    ---------------------------------------------------------
        1  |  0:00.00 |  5:06.55 |         0    |    23004
        2  |  5:06.55 |  4:49.57 |     23005    |    44736
        3  |  9:56.37 |  3:53.50 |     44737    |    62261
        4  | 13:50.12 |  3:55.18 |     62262    |    79904
        5  | 17:45.30 |  3:52.65 |     79905    |    97369
        6  | 21:38.20 |  6:50.02 |     97370    |   128121
        7  | 28:28.22 |  5:23.38 |    128122    |   152384
        8  | 33:51.60 |  7:33.20 |    152385    |   186379
        9  | 41:25.05 |  4:48.42 |    186380    |   208021
       10  | 46:13.47 |  6:42.00 |    208022    |   238171
       11  | 52:55.47 |  5:07.60 |    238172    |   261256
       12  | 58:03.32 |  5:19.23 |    261257    |   285204
       13  | 63:22.55 |  5:33.60 |    285205    |   310239
Track  1
     Filename D:\Straina\VA - The Ultimate European Dance Collection 3-CD-FLAC-1993-FunkyRecords\01. Lou Sern - Swiss Boy.wav
     Pre-gap length  0:00:02.00
     Peak level 93.6 %
     Extraction speed 1.2 X
     Track quality 99.9 %
     Test CRC 3C9CF0BD
     Copy CRC 3C9CF0BD
     Track not present in AccurateRip database
     Copy OK
Track  2
     Filename D:\Straina\VA - The Ultimate European Dance Collection 3-CD-FLAC-1993-FunkyRecords\02. DJ Gang - Tarzan Boy.wav
     Pre-gap length  0:00:02.30
     Peak level 86.0 %
     Extraction speed 1.5 X
     Track quality 100.0 %
     Test CRC 84AEEBA1
     Copy CRC 84AEEBA1
     Track not present in AccurateRip database
     Copy OK
Track  3
     Filename D:\Straina\VA - The Ultimate European Dance Collection 3-CD-FLAC-1993-FunkyRecords\03. Eddy Huntington - USSR.wav
     Pre-gap length  0:00:02.29
     Peak level 90.0 %
     Extraction speed 1.6 X
     Track quality 100.0 %
     Test CRC 3AA5530D
     Copy CRC 3AA5530D
     Track not present in AccurateRip database
     Copy OK
Track  4
     Filename D:\Straina\VA - The Ultimate European Dance Collection 3-CD-FLAC-1993-FunkyRecords\04. Radiorama - Fire.wav
     Pre-gap length  0:00:02.26
     Peak level 88.5 %
     Extraction speed 1.7 X
     Track quality 100.0 %
     Test CRC 1E9CDA4B
     Copy CRC 1E9CDA4B
     Track not present in AccurateRip database
     Copy OK
Track  5
     Filename D:\Straina\VA - The Ultimate European Dance Collection 3-CD-FLAC-1993-FunkyRecords\05. Sabrina - Boys (Summer Love).wav
     Pre-gap length  0:00:02.24
     Peak level 84.5 %
     Extraction speed 1.8 X
     Track quality 100.0 %
     Test CRC C75D249E
     Copy CRC C75D249E
     Track not present in AccurateRip database
     Copy OK
Track  6
     Filename D:\Straina\VA - The Ultimate European Dance Collection 3-CD-FLAC-1993-FunkyRecords\06. Alex C - Tonight All Night.wav
     Pre-gap length  0:00:02.26
     Peak level 87.6 %
     Extraction speed 1.9 X
     Track quality 99.9 %
     Test CRC 14F57821
     Copy CRC 14F57821
     Track not present in AccurateRip database
     Copy OK
Track  7
     Filename D:\Straina\VA - The Ultimate European Dance Collection 3-CD-FLAC-1993-FunkyRecords\07. Alex C - Fire.wav
     Pre-gap length  0:00:02.33
     Peak level 90.2 %
     Extraction speed 2.2 X
     Track quality 100.0 %
     Test CRC CB758F8C
     Copy CRC CB758F8C
     Track not present in AccurateRip database
     Copy OK
Track  8
     Filename D:\Straina\VA - The Ultimate European Dance Collection 3-CD-FLAC-1993-FunkyRecords\08. Sandy Politi - La Isla Bonita.wav
     Pre-gap length  0:00:02.20
     Peak level 91.8 %
     Extraction speed 2.4 X
     Track quality 100.0 %
     Test CRC C36F08F2
     Copy CRC C36F08F2
     Track not present in AccurateRip database
     Copy OK
Track  9
     Filename D:\Straina\VA - The Ultimate European Dance Collection 3-CD-FLAC-1993-FunkyRecords\09. Silent Circle - Touch in the Night.wav
     Pre-gap length  0:00:02.20
     Peak level 90.2 %
     Extraction speed 2.4 X
     Track quality 100.0 %
     Test CRC 402BF23B
     Copy CRC 402BF23B
     Track not present in AccurateRip database
     Copy OK
Track 10
     Filename D:\Straina\VA - The Ultimate European Dance Collection 3-CD-FLAC-1993-FunkyRecords\10. Joe Party - Ciao Amour (Dance Mix).wav
     Pre-gap length  0:00:02.33
     Peak level 94.4 %
     Extraction speed 2.6 X
     Track quality 100.0 %
     Test CRC 9812F17B
     Copy CRC 9812F17B
     Track not present in AccurateRip database
     Copy OK
Track 11
     Filename D:\Straina\VA - The Ultimate European Dance Collection 3-CD-FLAC-1993-FunkyRecords\11. Danuta - Touch My Heart.wav
     Pre-gap length  0:00:02.22
     Peak level 89.7 %
     Extraction speed 2.6 X
     Track quality 100.0 %
     Test CRC 77234745
     Copy CRC 77234745
     Track not present in AccurateRip database
     Copy OK
Track 12
     Filename D:\Straina\VA - The Ultimate European Dance Collection 3-CD-FLAC-1993-FunkyRecords\12. Vanessa - Crazy For You.wav
     Pre-gap length  0:00:02.20
     Peak level 88.6 %
     Extraction speed 2.7 X
     Track quality 100.0 %
     Test CRC 97ED6999
     Copy CRC 97ED6999
     Track not present in AccurateRip database
     Copy OK
Track 13
     Filename D:\Straina\VA - The Ultimate European Dance Collection 3-CD-FLAC-1993-FunkyRecords\13. Mike Mareen - Dancing in the Dark.wav
     Pre-gap length  0:00:02.17
     Peak level 97.3 %
     Extraction speed 2.8 X
     Track quality 100.0 %
     Test CRC 797534CA
     Copy CRC 797534CA
     Track not present in AccurateRip database
     Copy OK
None of the tracks are present in the AccurateRip database
No errors occurred
End of status report
---- CUETools DB Plugin V2.1.6
[CTDB TOCID: 4C7C2.B.CXgFt2gh1GrqEwoNtrg-] found
Submit result: 4C7C2.B.CXgFt2gh1GrqEwoNtrg- has been confirmed
Track | CTDB Status
  1   | (2/2) Accurately ripped
  2   | (2/2) Accurately ripped
  3   | (2/2) Accurately ripped
  4   | (2/2) Accurately ripped
  5   | (2/2) Accurately ripped
  6   | (2/2) Accurately ripped
  7   | (2/2) Accurately ripped
  8   | (2/2) Accurately ripped
  9   | (2/2) Accurately ripped
 10   | (2/2) Accurately ripped
 11   | (2/2) Accurately ripped
 12   | (2/2) Accurately ripped
 13   | (2/2) Accurately ripped
==== Log checksum A2C9E25FD79BCCBAA2D4DA359A7A4EEFB2D9859D792297D07DB47A2A583CF6D0 ====
Код:
AUDIOCHECKER v2.0 beta (build 457) - by Dester - opdester@freemail.hu
~~~~~~~~~~~~~~~~~~~~~~~~~~~~~~~~~~
-=== DO NOT EDIT THIS FILE! ===-
Path: ...\VA - The Ultimate European Dance Collection 3-CD-FLAC-1993-FunkyRecords
01 -=- 01. Lou Sern - Swiss Boy.flac -=- CDDA (99%)
02 -=- 02. DJ Gang - Tarzan Boy.flac -=- CDDA (99%)
03 -=- 03. Eddy Huntington - USSR.flac -=- CDDA (100%)
04 -=- 04. Radiorama - Fire.flac -=- CDDA (100%)
05 -=- 05. Sabrina - Boys (Summer Love).flac -=- CDDA (100%)
06 -=- 06. Alex C - Tonight All Night.flac -=- MPEG (95%)
07 -=- 07. Alex C - Fire.flac -=- CDDA (100%)
08 -=- 08. Sandy Politi - La Isla Bonita.flac -=- CDDA (100%)
09 -=- 09. Silent Circle - Touch in the Night.flac -=- CDDA (100%)
10 -=- 10. Joe Party - Ciao Amour (Dance Mix).flac -=- CDDA (100%)
11 -=- 11. Danuta - Touch My Heart.flac -=- CDDA (100%)
12 -=- 12. Vanessa - Crazy For You.flac -=- CDDA (100%)
13 -=- 13. Mike Mareen - Dancing in the Dark.flac -=- CDDA (100%)
Summary 92.54% CDDA
21195828
загрузка...
Правила, инструкции, FAQ!!!
Торрент  Добавлен [16 сен 2018, 18:48] Скачать торрент Магнет ссылка
Скачать торрент
[ Размер 21.54 КБ / Просмотров 1 ]

Статус
Проверен 
 
Размер  505.11 МБ
Приватный: Нет (DHT включён)
.torrent скачан  0
Как залить торрент? | Как скачать Torrent? | Ошибка в торренте? Качайте магнет  


     Отправить личное сообщение
   
Страница 1 из 1
Показать сообщения за:  Поле сортировки  
Начать новую тему Ответить на тему

   Похожие торренты   Автор   Ответы   Просмотры   Последнее сообщение 
В этой теме нет новых непрочитанных сообщений. Скачать торрент Проверен (Electronic) VA - The Ultimate European Dance Collection 3 - 1993, MP3, 320 kbps

в форуме Зарубежная музыка, Размер: 162.48 МБ, Здоровье: 0%

Anonymous

0
0|0

8
0

16 сен 2018, 18:42

Anonymous Перейти к последнему сообщению

В этой теме нет новых непрочитанных сообщений. Скачать торрент Проверен (Pop, Dance, Rock, Soul) [CD] Anastacia - Ultimate Collection - 2015, FLAC (tracks+.cue), lossless

в форуме Зарубежная музыка, Размер: 522.46 МБ, Здоровье: 100%

Гость

0
54|14

104
19

17 авг 2016, 13:35

Гость Перейти к последнему сообщению

В этой теме нет новых непрочитанных сообщений. Скачать торрент Проверен (Pop, Dance) Britney Spears - The Singles Collection [Ultimate Fan Box Set] - 2009, FLAC (tracks+.cue), lossless

в форуме Зарубежная музыка, Размер: 1.7 ГБ, Здоровье: 100%

Anonymous

0
3|2

45
1

12 авг 2016, 21:23

Anonymous Перейти к последнему сообщению

В этой теме нет новых непрочитанных сообщений. Скачать торрент Проверен (Psychedelic Rock) Jimi Hendrix - Ultimate Live Collection - 1993, FLAC (tracks+.cue), lossless

в форуме Classic Rock & Hard Rock, Размер: 1.56 ГБ, Здоровье: 100%

Anonymous

0
4|2

6
1

04 сен 2016, 23:37

Anonymous Перейти к последнему сообщению

В этой теме нет новых непрочитанных сообщений. Скачать торрент Проверен (House/Dance/Electronic) [LP] [24bit 48kHz] Rozalla ‎– Everybody's Free-Style 1993 - 1993, FLAC (tracks)

в форуме Электронная музыка (оцифровки), Размер: 664.14 МБ, Здоровье: 83%

Anonymous

0
5|6

31
0

15 сен 2016, 18:33

Anonymous Перейти к последнему сообщению



Сейчас этот форум просматривают: нет зарегистрированных пользователей и гости: 1


Вы не можете начинать темы
Вы не можете отвечать на сообщения
Вы не можете редактировать свои сообщения
Вы не можете удалять свои сообщения
Вы не можете добавлять вложения

Перейти:  
Ресурс не предоставляет электронные версии произведений, а занимается лишь коллекционированием и каталогизацией ссылок, присылаемых и публикуемых на форуме нашими читателями. Если вы являетесь правообладателем какого-либо представленного материала и не желаете чтобы ссылка на него находилась в нашем каталоге, свяжитесь с нами и мы незамедлительно удалим её. Файлы для обмена на трекере предоставлены пользователями сайта, и администрация не несёт ответственности за их содержание. Просьба не заливать файлы, защищенные авторскими правами, а также файлы нелегального содержания!
cron