На всех торрентах на трекере установлена скидка на скачивание в размере 100 процентов(а).
 Возможность скачивания торрента НЕ зависит от ограничений при низком ратио, низком аплоаде, требуемом ратио или требуемом аплоаде.


Начать новую тему Ответить на тему
Статистика раздачи
Размер: 474.56 МБ | Добавлен: 16 авг 2016, 21:27 | Скачали: 5
Сидеров: 12  [0 байт/сек]    Личеров: 5  [0 байт/сек]
Пред. тема | След. тема 

Автор
Сообщение

СообщениеДобавлено: 16 авг 2016, 21:27 

Ответить с цитатой 

Supermax / The Magic of Supermax (2015) [Unofficial Compilation]

Жанр: Electronic, Pop, Funk, Reggae
Носитель: CD
Страна-производитель диска (релиза): Taiwan
Год издания: 2015
Издатель (лейбл): Chinese Dragon Music Co. Ltd.
Номер по каталогу: SPCD-DG484
Страна исполнителя (группы): Austria / West Germany
Аудиокодек: FLAC (*.flac)
Тип рипа: tracks+.cue
Битрейт аудио: lossless
Продолжительность: 01:09:50
Источник (релизер): demonoid trk
Наличие сканов в содержимом раздачи: да
Треклист:
01.Lovemachine
02.Dance Dance Dance
03.African Blood
04.Hollywood
05.Got To Love
06.World Of Today
07.Reggae Fever
08.Musicexpress
09.Camillo
10.Ain't Gonna Feel
11.Push Push (Sexy Chocolate Girl)
12.It's Long Way To Reach Heaven
13.Don't Stop The Music
14.Aja Jah Jah
Код:
Exact Audio Copy V0.99 prebeta 5 from 4. May 2009

EAC extraction logfile from 23. December 2015, 8:53

Supermax / The Magic of Supermax

Used drive  : ASUS    DRW-24B5ST   Adapter: 1  ID: 0

Read mode               : Secure
Utilize accurate stream : Yes
Defeat audio cache      : Yes
Make use of C2 pointers : No

Read offset correction                      : 6
Overread into Lead-In and Lead-Out          : No
Fill up missing offset samples with silence : Yes
Delete leading and trailing silent blocks   : No
Null samples used in CRC calculations       : Yes
Used interface                              : Native Win32 interface for Win NT & 2000
Gap handling                                : Appended to previous track

Used output format : Internal WAV Routines
Sample format      : 44.100 Hz; 16 Bit; Stereo

TOC of the extracted CD

     Track |   Start  |  Length  | Start sector | End sector
    ---------------------------------------------------------
        1  |  0:00.00 |  8:36.61 |         0    |    38760
        2  |  8:36.61 |  3:42.67 |     38761    |    55477
        3  | 12:19.53 |  8:33.71 |     55478    |    94023
        4  | 20:53.49 |  4:02.00 |     94024    |   112173
        5  | 24:55.49 |  3:57.00 |    112174    |   129948
        6  | 28:52.49 |  4:25.06 |    129949    |   149829
        7  | 33:17.55 |  3:32.33 |    149830    |   165762
        8  | 36:50.13 |  3:40.00 |    165763    |   182262
        9  | 40:30.13 |  3:16.09 |    182263    |   196971
       10  | 43:46.22 |  8:25.00 |    196972    |   234846
       11  | 52:11.22 |  3:03.00 |    234847    |   248571
       12  | 55:14.22 |  4:16.00 |    248572    |   267771
       13  | 59:30.22 |  5:59.39 |    267772    |   294735
       14  | 65:29.61 |  4:18.50 |    294736    |   314135

Track  1

     Filename E:\EAC-CD-NEW\01 - Lovemachine.wav

     Pre-gap length  0:00:02.00

     Peak level 96.4 %
     Track quality 100.0 %
     Test CRC 6D84B8EB
     Copy CRC 6D84B8EB
     Copy OK

Track  2

     Filename E:\EAC-CD-NEW\02 - Dance Dance Dance.wav

     Peak level 96.4 %
     Track quality 100.0 %
     Test CRC 8DEF2A96
     Copy CRC 8DEF2A96
     Copy OK

Track  3

     Filename E:\EAC-CD-NEW\03 - African Blood.wav

     Peak level 96.4 %
     Track quality 100.0 %
     Test CRC 8A07DB58
     Copy CRC 8A07DB58
     Copy OK

Track  4

     Filename E:\EAC-CD-NEW\04 - Hollywood.wav

     Peak level 96.4 %
     Track quality 100.0 %
     Test CRC 684F803F
     Copy CRC 684F803F
     Copy OK

Track  5

     Filename E:\EAC-CD-NEW\05 - Got To Love.wav

     Peak level 96.4 %
     Track quality 100.0 %
     Test CRC 5816CD4C
     Copy CRC 5816CD4C
     Copy OK

Track  6

     Filename E:\EAC-CD-NEW\06 - World Of Today.wav

     Peak level 96.4 %
     Track quality 100.0 %
     Test CRC A61691B5
     Copy CRC A61691B5
     Copy OK

Track  7

     Filename E:\EAC-CD-NEW\07 - Reggae Fever.wav

     Peak level 96.4 %
     Track quality 100.0 %
     Test CRC AB3FE88F
     Copy CRC AB3FE88F
     Copy OK

Track  8

     Filename E:\EAC-CD-NEW\08 - Musicexpress.wav

     Peak level 96.4 %
     Track quality 100.0 %
     Test CRC EDF356E5
     Copy CRC EDF356E5
     Copy OK

Track  9

     Filename E:\EAC-CD-NEW\09 - Camillo.wav

     Peak level 96.4 %
     Track quality 100.0 %
     Test CRC AAE0128E
     Copy CRC AAE0128E
     Copy OK

Track 10

     Filename E:\EAC-CD-NEW\10 - Ain't Gonna Feel.wav

     Peak level 96.0 %
     Track quality 100.0 %
     Test CRC 4C10E6DB
     Copy CRC 4C10E6DB
     Copy OK

Track 11

     Filename E:\EAC-CD-NEW\11 - Push Push (Sexy Chocolate Girl).wav

     Peak level 96.4 %
     Track quality 100.0 %
     Test CRC 61FD6B08
     Copy CRC 61FD6B08
     Copy OK

Track 12

     Filename E:\EAC-CD-NEW\12 - It's Long Way To Reach Heaven.wav

     Peak level 96.4 %
     Track quality 100.0 %
     Test CRC EAD2CF6D
     Copy CRC EAD2CF6D
     Copy OK

Track 13

     Filename E:\EAC-CD-NEW\13 - Don't Stop The Music.wav

     Peak level 96.4 %
     Track quality 100.0 %
     Test CRC 114D3639
     Copy CRC 114D3639
     Copy OK

Track 14

     Filename E:\EAC-CD-NEW\14 - Aja Jah Jah.wav

     Peak level 96.4 %
     Track quality 100.0 %
     Test CRC 0C03E0CA
     Copy CRC 0C03E0CA
     Copy OK

No errors occurred

End of status report
Код:
REM GENRE Electronic
REM DATE 2015
REM DISCID C5105C0E
REM COMMENT "ExactAudioCopy v0.99pb5"
PERFORMER "Supermax"
TITLE "The Magic of Supermax"
FILE "01 - Lovemachine.wav" WAVE
  TRACK 01 AUDIO
    TITLE "Lovemachine"
    PERFORMER "Supermax"
    INDEX 01 00:00:00
FILE "02 - Dance Dance Dance.wav" WAVE
  TRACK 02 AUDIO
    TITLE "Dance Dance Dance"
    PERFORMER "Supermax"
    INDEX 01 00:00:00
FILE "03 - African Blood.wav" WAVE
  TRACK 03 AUDIO
    TITLE "African Blood"
    PERFORMER "Supermax"
    INDEX 01 00:00:00
FILE "04 - Hollywood.wav" WAVE
  TRACK 04 AUDIO
    TITLE "Hollywood"
    PERFORMER "Supermax"
    INDEX 01 00:00:00
FILE "05 - Got To Love.wav" WAVE
  TRACK 05 AUDIO
    TITLE "Got To Love"
    PERFORMER "Supermax"
    INDEX 01 00:00:00
FILE "06 - World Of Today.wav" WAVE
  TRACK 06 AUDIO
    TITLE "World Of Today"
    PERFORMER "Supermax"
    INDEX 01 00:00:00
FILE "07 - Reggae Fever.wav" WAVE
  TRACK 07 AUDIO
    TITLE "Reggae Fever"
    PERFORMER "Supermax"
    INDEX 01 00:00:00
FILE "08 - Musicexpress.wav" WAVE
  TRACK 08 AUDIO
    TITLE "Musicexpress"
    PERFORMER "Supermax"
    INDEX 01 00:00:00
FILE "09 - Camillo.wav" WAVE
  TRACK 09 AUDIO
    TITLE "Camillo"
    PERFORMER "Supermax"
    INDEX 01 00:00:00
FILE "10 - Ain't Gonna Feel.wav" WAVE
  TRACK 10 AUDIO
    TITLE "Ain't Gonna Feel"
    PERFORMER "Supermax"
    INDEX 01 00:00:00
FILE "11 - Push Push (Sexy Chocolate Girl).wav" WAVE
  TRACK 11 AUDIO
    TITLE "Push Push (Sexy Chocolate Girl)"
    PERFORMER "Supermax"
    INDEX 01 00:00:00
FILE "12 - It's Long Way To Reach Heaven.wav" WAVE
  TRACK 12 AUDIO
    TITLE "It's Long Way To Reach Heaven"
    PERFORMER "Supermax"
    INDEX 01 00:00:00
FILE "13 - Don't Stop The Music.wav" WAVE
  TRACK 13 AUDIO
    TITLE "Don't Stop The Music"
    PERFORMER "Supermax"
    INDEX 01 00:00:00
FILE "14 - Aja Jah Jah.wav" WAVE
  TRACK 14 AUDIO
    TITLE "Aja Jah Jah"
    PERFORMER "Supermax"
    INDEX 01 00:00:00
Код:
-----------------------

DON'T MODIFY THIS FILE

-----------------------

PERFORMER: auCDtect Task Manager, ver. 1.5.1RC6 build 1.5.1.7
Copyright (c) 2008-2010 y-soft. All rights reserved
[url=http://y-soft.org]http://y-soft.org[/url]

ANALYZER: auCDtect: CD records authenticity detector, version 0.8.2
Copyright (c) 2004 Oleg Berngardt. All rights reserved.
Copyright (c) 2004 Alexander Djourik. All rights reserved.

FILE: 01 - Lovemachine.wav
  Size: 91165916 Hash: A95CB526D898DEC8F7B82C2C8AF0B9F9 Accuracy: -m0
  Conclusion: CDDA 100%
  Signature: 6025F553F73D5E59BD4CC4D14408CD59FAFA03E8
FILE: 02 - Dance Dance Dance.wav
  Size: 39318428 Hash: 1E0F9D8249ED70B3AA1E39EAFBFA0641 Accuracy: -m0
  Conclusion: CDDA 100%
  Signature: A04A9C8C9CD15FED42865B08F910AE896C0DB09B
FILE: 03 - African Blood.wav
  Size: 90660236 Hash: 2518D6332BE25EDD1AA8D99E69A2ABF5 Accuracy: -m0
  Conclusion: CDDA 100%
  Signature: 4D51F618943BE7570F0F930A4069F438B863CF21
FILE: 04 - Hollywood.wav
  Size: 42688844 Hash: 28A09A8E5094163C7DFC4E2677785777 Accuracy: -m0
  Conclusion: CDDA 100%
  Signature: B091AF0367AFD4B5ED4D9922392867D05FAC4E03
FILE: 05 - Got To Love.wav
  Size: 41806844 Hash: 0AA3E38DFAF098A599F773114E0BBE2E Accuracy: -m0
  Conclusion: CDDA 99%
  Signature: 9607EB8BCCD2F2B85708E396ACB8DCE4DE925F6F
FILE: 06 - World Of Today.wav
  Size: 46760156 Hash: A260F90982F85DDF25ABF54D33EB364B Accuracy: -m0
  Conclusion: CDDA 99%
  Signature: CD0A0E8906195F8A94608851B1A93A1565C398F8
FILE: 07 - Reggae Fever.wav
  Size: 37474460 Hash: 136AAC24D10117171934BD0D4340D861 Accuracy: -m0
  Conclusion: CDDA 100%
  Signature: FD5C2FAA8435D5C5BC71EFE794F60B2A1A3E8720
FILE: 08 - Musicexpress.wav
  Size: 38808044 Hash: 8E2A5134CAEBDA2862152A671FB8D847 Accuracy: -m0
  Conclusion: CDDA 100%
  Signature: AD647CD5B6B9B7FDFA51DCA0058DCB912ECAE09F
FILE: 09 - Camillo.wav
  Size: 34595612 Hash: 295FD3FEDF6A9B557C909428FC173311 Accuracy: -m0
  Conclusion: CDDA 100%
  Signature: D7E058FC64D29F9762C9F834CD0E40DE6D0F57E5
FILE: 10 - Ain't Gonna Feel.wav
  Size: 89082044 Hash: B5B15E946E5D9884FA6D2F14D0268477 Accuracy: -m0
  Conclusion: CDDA 100%
  Signature: 283326EAE3C71D8E81FC324A5FEA1A6B6A491ED9
FILE: 11 - Push Push (Sexy Chocolate Girl).wav
  Size: 32281244 Hash: 42E1291D244E5BD25F92B1EE1DBFB664 Accuracy: -m0
  Conclusion: CDDA 100%
  Signature: F4DAFC7E9D9459B86FDD9FEA323157A6DEDA8762
FILE: 12 - It's Long Way To Reach Heaven.wav
  Size: 45158444 Hash: A966F64F4F786EE952B107E633FCDDB1 Accuracy: -m0
  Conclusion: CDDA 100%
  Signature: 41986288B50167F5B0E520A932C85FF0E8295E78
FILE: 13 - Don't Stop The Music.wav
  Size: 63419372 Hash: 5839194C01D741C56285A3F8614BA099 Accuracy: -m0
  Conclusion: CDDA 100%
  Signature: EFC6E2CBA6411D65CC1256F631BC94F9F7C510A6
FILE: 14 - Aja Jah Jah.wav
  Size: 45628844 Hash: 0E215B1E9D2648963231DD30E558C818 Accuracy: -m0
  Conclusion: CDDA 100%
  Signature: CCBEB573956DA9B5B1BD23DF90D8BED1B2BAB969
Compilation - The Best Hits
Members
Kurt Hauenstein (vocals, bass, keyboards, percussion), Cynthia Arrich (vocals), Teples Reynolds (vocals), Daniel Ford (percussion), Richard Schoenherz (piano, organ, synthesizer), Hartmut Pfannmüller (drums), Hans Ochs (guitar), Ken Taylor (bass), Lothar Krell (keyboards), Peter Koch (drums, percussion), Cee Cee Cobb (vocals), Jean Graham (vocals), Larry London (percussion, vocals), Rainer Marz (guitar), Jürgen Zöller (percussion), Brad Howell (drums, percussion, vocals), Juanita Schulz (vocals), Christian Kolonovits (vocals, keyboards)
загрузка...
Правила, инструкции, FAQ!!!
Торрент  Добавлен [16 авг 2016, 21:27] Скачать торрент Магнет ссылка
Скачать торрент
[ Размер 20.18 КБ / Просмотров 22 ]

Статус
Проверен 
 
Размер  474.56 МБ
Приватный: Нет (DHT включён)
.torrent скачан  5
Как залить торрент? | Как скачать Torrent? | Как смотреть и слушать онлайн?  


     Отправить личное сообщение
   
Страница 1 из 1
Показать сообщения за:  Поле сортировки  
Начать новую тему Ответить на тему

   Похожие торренты   Автор   Ответы   Просмотры   Последнее сообщение 
В этой теме нет новых непрочитанных сообщений. Скачать торрент Проверен Supermax - The Box (10 CD) (2009) [FLAC|lossless]<Soul, Reggae / Electronic, Funk>

в форуме Зарубежная музыка, Размер: 4.1 ГБ, Здоровье: 100%

Anonymous

0
10|7

105
0

12 янв 2015, 22:09

Anonymous Перейти к последнему сообщению

В этой теме нет новых непрочитанных сообщений. Скачать торрент Проверен Supermax - Greatest Hits (2008) 2CD, Star Mark Compilation [FLAC|Lossless]<Disco, Pop, Reggae, Soul, Funk>

в форуме Зарубежная музыка, Размер: 1.09 ГБ, Здоровье: 13%

Гость

0
5|38

151
0

12 янв 2015, 21:01

Гость Перейти к последнему сообщению

В этой теме нет новых непрочитанных сообщений. Скачать торрент Проверен (Electronic, Pop, Reggae) Supermax – Just Before The Nightmare ©1988, FLAC (image+.cue), lossless

в форуме Зарубежная музыка, Размер: 347.92 МБ, Здоровье: 100%

Anonymous

0
16|6

44
0

17 авг 2016, 12:50

Anonymous Перейти к последнему сообщению

В этой теме нет новых непрочитанных сообщений. Скачать торрент Проверен (Electronic, Reggae, Rock) Supermax - Meets The Almighty - 1993, FLAC (image+.cue), lossless

в форуме Зарубежная музыка, Размер: 258.27 МБ, Здоровье: 100%

Anonymous

0
5|1

18
1

16 авг 2016, 22:44

Anonymous Перейти к последнему сообщению

В этой теме нет новых непрочитанных сообщений. Скачать торрент Проверен Supermax - "Концерт Supermax в Санкт-Петербурге ( ДК им. Ленсовета)" 14-12-2008 [2008, Pop-Disco-Reggae, CamRip]

в форуме Концерты (DVD-Video), Размер: 4.24 ГБ, Здоровье: 0%

Anonymous

0
0|0

0
0

12 ноя 2017, 11:37

Anonymous Перейти к последнему сообщению



Сейчас этот форум просматривают: нет зарегистрированных пользователей и гости: 0


Вы не можете начинать темы
Вы не можете отвечать на сообщения
Вы не можете редактировать свои сообщения
Вы не можете удалять свои сообщения
Вы не можете добавлять вложения

Перейти:  

!ВНИМАНИЕ!
 Ресурс не предоставляет электронные версии произведений, а занимается лишь коллекционированием и каталогизацией ссылок, присылаемых и публикуемых на форуме нашими читателями. Если вы являетесь правообладателем какого-либо представленного материала и не желаете чтобы ссылка на него находилась в нашем каталоге, свяжитесь с нами и мы незамедлительно удалим её. Файлы для обмена на трекере предоставлены пользователями сайта, и администрация не несёт ответственности за их содержание. Просьба не заливать файлы, защищенные авторскими правами, а также файлы нелегального содержания!