На всех торрентах на трекере установлена скидка на скачивание в размере 100 процентов(а).
 Возможность скачивания торрента НЕ зависит от ограничений при низком ратио, низком аплоаде, требуемом ратио или требуемом аплоаде.


Начать новую тему Ответить на тему
Статистика раздачи
Размер: 782.77 МБ | Добавлен: 16 сен 2018, 18:48 | Скачали: 1
Сидеров: 0  [0 байт/сек]    Личеров: 0  [0 байт/сек]
Пред. тема | След. тема 

Автор
Сообщение

СообщениеДобавлено: 16 сен 2018, 18:48 

Ответить с цитатой 

BELLE EPOQUE

Miss Broadway / Bamalama / Now
(CD, Compilation, Album, Unofficial Release, Bonus Tracks, (в некоторых источниках упоминается как La Belle Epoque;
с фр. «Прекрасная эпоха») — французское женское вокальное трио из Парижа.)
Жанр: Electronic, Pop, Disco
Носитель
: CD
Страна-производитель диска (релиза): Russia
Год издания: (1977, 1978) - 2002, 1979
Издатель (лейбл):1CD - CD-Maximum / 2CD - D.V. More Record
Номер по каталогу: 1CD - CDM 0602-1022 / 2CD - CD DV 7022
Страна исполнителя (группы): Paris, France
Аудиокодек: FLAC (*.flac)
Тип рипа: image+.cue
Битрейт аудио: lossless
Продолжительность: 1:03:03 + 00:51:17 = 01:54:20
Источник (релизер): stas64
Наличие сканов в содержимом раздачи: да 600dpi
.
Треклист:
Album: Miss Broadway - 1977 Disques Carrere
01. Miss Broadway (07:24)
02. Me And You (05:35)
03. Losing You (04:09)
04. Disco Sound / Black Is Black / Why Don't You Lay (14:10)

Album: Bamalama - 1978 Disques Carrere
05. Bamalama (11:41)
06. Mister-Do-Right (04:05)
07. Drink Me (05:03)
08. Sorry (06:12)
09. Let Me Be (04:41)



Код:
Exact Audio Copy V1.3 from 2. September 2016
Отчёт EAC об извлечении, выполненном 10. сентября 2018, 18:19
Belle Epoque / Miss Broadway - Bamalama
Дисковод: PLEXTOR DVDR   PX-712A   Adapter: 8  ID: 0
Режим чтения                 : Достоверность
Использование точного потока : Да
Отключение кэша аудио        : Да
Использование указателей C2  : Нет
Коррекция смещения при чтении                     : 30
Способность читать области Lead-in и Lead-out     : Нет
Заполнение пропущенных сэмплов тишиной            : Да
Удаление блоков с тишиной в начале и конце        : Нет
При вычислениях CRC использовались нулевые сэмплы : Да
Интерфейс                                         : Установленный внешний ASPI-интерфейс
Выходной формат          : Пользовательский кодировщик
Выбранный битрейт        : 128 kBit/s
Качество                 : Высокий
Добавление ID3-тега      : Нет
Утилита сжатия           : C:\Program Files\Exact Audio Copy\FLAC\FLAC.EXE
Дополнительные параметры : -V -8 -T "Genre=%genre%" -T "Artist=%artist%" -T "Title=%title%" -T "Album=%albumtitle%" -T "Date=%year%" -T "Tracknumber=%tracknr%" -T "Comment=%comment%" %source%
TOC извлечённого CD
     Трек |   Старт  | Длительность | Начальный сектор | Конечный сектор
    ---------------------------------------------------------------------
       1  |  0:00.00 |    7:24.42   |           0      |      33341
       2  |  7:24.42 |    5:35.74   |       33342      |      58540
       3  | 13:00.41 |    4:09.15   |       58541      |      77230
       4  | 17:09.56 |   14:10.22   |       77231      |     141002
       5  | 31:20.03 |   11:41.12   |      141003      |     193589
       6  | 43:01.15 |    4:05.09   |      193590      |     211973
       7  | 47:06.24 |    5:03.02   |      211974      |     234700
       8  | 52:09.26 |    6:12.21   |      234701      |     262621
       9  | 58:21.47 |    4:41.65   |      262622      |     283761
Характеристики диапазона извлечения и сообщения об ошибках
Выбранный диапазон
     Имя файла I:\MOI_RAZDACI\Belle.Epoque_3.album_1977.1978.1979\Belle.Epoque_3.album_1977.1978.1979\Belle.Epoque_Miss.Broadway_Bamalama_2002\Belle Epoque - Miss Broadway - Bamalama.wav
     Пиковый уровень 100.0 %
     Скорость извлечения 13.0 X
     Качество диапазона 99.9 %
     CRC теста 1ACB39BB
     CRC копии 1ACB39BB
     Копирование... OK
Ошибок не произошло
AccurateRip: сводка
Трек  1  : извлечено точно (доверие 4)  [09B5827A]  (AR v2)
Трек  2  : извлечено точно (доверие 4)  [2E92C4AC]  (AR v2)
Трек  3  : извлечено точно (доверие 4)  [86788429]  (AR v2)
Трек  4  : извлечено точно (доверие 4)  [9E278AC8]  (AR v2)
Трек  5  : извлечено точно (доверие 4)  [8AFAFAE8]  (AR v2)
Трек  6  : извлечено точно (доверие 4)  [6985D43A]  (AR v2)
Трек  7  : извлечено точно (доверие 4)  [84594F43]  (AR v2)
Трек  8  : извлечено точно (доверие 4)  [FDD945B9]  (AR v2)
Трек  9  : извлечено точно (доверие 4)  [47FC6587]  (AR v2)
Все треки извлечены точно
Конец отчёта
---- CUETools DB Plugin V2.1.6
[CTDB TOCID: FM649hjSFrmbo.Pd3glIL_nvn9k-] found
Submit result: FM649hjSFrmbo.Pd3glIL_nvn9k- has been confirmed
Track | CTDB Status
  1   | (3/3) Accurately ripped
  2   | (3/3) Accurately ripped
  3   | (3/3) Accurately ripped
  4   | (3/3) Accurately ripped
  5   | (3/3) Accurately ripped
  6   | (3/3) Accurately ripped
  7   | (3/3) Accurately ripped
  8   | (3/3) Accurately ripped
  9   | (3/3) Accurately ripped
==== Контрольная сумма отчёта 5A64F160741018517942A5BDC302596960986659EC7E60ACBA1BCA7CD5CD4506 ====
Код:
REM GENRE Disco
REM DATE 2002
REM DISCID 720EC709
REM COMMENT "ExactAudioCopy v1.3"
PERFORMER "Belle Epoque"
TITLE "Miss Broadway - Bamalama"
REM COMPOSER ""
FILE "Belle Epoque - Miss Broadway - Bamalama.flac" WAVE
  TRACK 01 AUDIO
    TITLE "Miss Broadway"
    PERFORMER "Belle Epoque"
    REM COMPOSER ""
    INDEX 01 00:00:00
  TRACK 02 AUDIO
    TITLE "Me And You"
    PERFORMER "Belle Epoque"
    REM COMPOSER ""
    INDEX 00 07:23:42
    INDEX 01 07:24:42
  TRACK 03 AUDIO
    TITLE "Losing You"
    PERFORMER "Belle Epoque"
    REM COMPOSER ""
    INDEX 00 12:59:41
    INDEX 01 13:00:41
  TRACK 04 AUDIO
    TITLE "Disco Sound / Black Is Black / Why Don't You Lay"
    PERFORMER "Belle Epoque"
    REM COMPOSER ""
    INDEX 00 17:08:56
    INDEX 01 17:09:56
  TRACK 05 AUDIO
    TITLE "Bamalama"
    PERFORMER "Belle Epoque"
    REM COMPOSER ""
    INDEX 00 31:19:03
    INDEX 01 31:20:03
  TRACK 06 AUDIO
    TITLE "Mister-Do-Right"
    PERFORMER "Belle Epoque"
    REM COMPOSER ""
    INDEX 00 43:00:15
    INDEX 01 43:01:15
  TRACK 07 AUDIO
    TITLE "Drink Me"
    PERFORMER "Belle Epoque"
    REM COMPOSER ""
    INDEX 00 47:05:24
    INDEX 01 47:06:24
  TRACK 08 AUDIO
    TITLE "Sorry"
    PERFORMER "Belle Epoque"
    REM COMPOSER ""
    INDEX 00 52:08:26
    INDEX 01 52:09:26
  TRACK 09 AUDIO
    TITLE "Let Me Be"
    PERFORMER "Belle Epoque"
    REM COMPOSER ""
    INDEX 00 58:20:47
    INDEX 01 58:21:47
Код:
-----------------------
DON'T MODIFY THIS FILE
-----------------------
PERFORMER: auCDtect Task Manager, ver. 1.6.0 RC1 build 1.6.0.1
Copyright (c) 2008-2010 y-soft. All rights reserved
[url=http://y-soft.org]http://y-soft.org[/url]
ANALYZER: auCDtect: CD records authenticity detector, version 0.8.2
Copyright (c) 2004 Oleg Berngardt. All rights reserved.
Copyright (c) 2004 Alexander Djourik. All rights reserved.
FILE: Belle Epoque - Miss Broadway - Bamalama.flac
  Size: 451498920 Hash: FC6BE2A2A9590B1DCEDA68122E056330 Accuracy: -m0
  Conclusion: CDDA 100%
  Signature: 664E4042AFD1C419D16BCBD60BDD6212E127D472
Треклист:
01. Jump Down (05:45)
02. Gimme Time (03:40)
03. Lose My Man (04:52)
04. Now (05:34)
05. My Life (04:25)
06. Loving You (06:00)
07. Stranger Once Again (05:06)
08. Comon Tonight (03:57)
Bonustracks
09. La France C'est L'Amour (03:51)
10. Island Of Emotion (03:34)
11. Miss You (04:28)



Код:
Exact Audio Copy V1.3 from 2. September 2016
Отчёт EAC об извлечении, выполненном 10. сентября 2018, 19:04
Belle Epoque / Now
Дисковод: PLEXTOR DVDR   PX-712A   Adapter: 8  ID: 0
Режим чтения                 : Достоверность
Использование точного потока : Да
Отключение кэша аудио        : Да
Использование указателей C2  : Нет
Коррекция смещения при чтении                     : 30
Способность читать области Lead-in и Lead-out     : Нет
Заполнение пропущенных сэмплов тишиной            : Да
Удаление блоков с тишиной в начале и конце        : Нет
При вычислениях CRC использовались нулевые сэмплы : Да
Интерфейс                                         : Установленный внешний ASPI-интерфейс
Выходной формат          : Пользовательский кодировщик
Выбранный битрейт        : 128 kBit/s
Качество                 : Высокий
Добавление ID3-тега      : Нет
Утилита сжатия           : C:\Program Files\Exact Audio Copy\FLAC\FLAC.EXE
Дополнительные параметры : -V -8 -T "Genre=%genre%" -T "Artist=%artist%" -T "Title=%title%" -T "Album=%albumtitle%" -T "Date=%year%" -T "Tracknumber=%tracknr%" -T "Comment=%comment%" %source%
TOC извлечённого CD
     Трек |   Старт  | Длительность | Начальный сектор | Конечный сектор
    ---------------------------------------------------------------------
       1  |  0:00.00 |    5:45.48   |           0      |      25922
       2  |  5:45.48 |    3:40.09   |       25923      |      42431
       3  |  9:25.57 |    4:52.16   |       42432      |      64347
       4  | 14:17.73 |    5:34.58   |       64348      |      89455
       5  | 19:52.56 |    4:25.06   |       89456      |     109336
       6  | 24:17.62 |    6:00.01   |      109337      |     136337
       7  | 30:17.63 |    5:06.39   |      136338      |     159326
       8  | 35:24.27 |    3:57.13   |      159327      |     177114
       9  | 39:21.40 |    3:51.68   |      177115      |     194507
      10  | 43:13.33 |    3:34.67   |      194508      |     210624
      11  | 46:48.25 |    4:28.65   |      210625      |     230789
Характеристики диапазона извлечения и сообщения об ошибках
Выбранный диапазон
     Имя файла I:\MOI_RAZDACI\Belle.Epoque_3.album_1977.1978.1979\Belle.Epoque_3.album_1977.1978.1979\Belle.Epoque_Now_1979\Belle Epoque - Now.wav
     Пиковый уровень 98.8 %
     Скорость извлечения 8.5 X
     Качество диапазона 99.9 %
     CRC теста 530AF861
     CRC копии 530AF861
     Копирование... OK
Ошибок не произошло
AccurateRip: сводка
Трек  1  : извлечено точно (доверие 1)  [FABBDE93]  (AR v1)
Трек  2  : извлечено точно (доверие 1)  [557B32B6]  (AR v1)
Трек  3  : извлечено точно (доверие 1)  [F2995DA7]  (AR v1)
Трек  4  : извлечено точно (доверие 1)  [49EB2BAF]  (AR v1)
Трек  5  : извлечено точно (доверие 1)  [5F9353ED]  (AR v1)
Трек  6  : извлечено точно (доверие 1)  [B3DE00EA]  (AR v1)
Трек  7  : извлечено точно (доверие 1)  [E874DB0F]  (AR v1)
Трек  8  : извлечено точно (доверие 1)  [A5F643FA]  (AR v1)
Трек  9  : извлечено точно (доверие 1)  [BCB9D206]  (AR v1)
Трек 10  : извлечено точно (доверие 1)  [4DB0AF7C]  (AR v1)
Трек 11  : извлечено точно (доверие 1)  [11FA47EA]  (AR v1)
Все треки извлечены точно
Конец отчёта
---- CUETools DB Plugin V2.1.6
[CTDB TOCID: ULuZR6rGhj4sV9N5K_OOhquLjU4-] found
Submit result: ULuZR6rGhj4sV9N5K_OOhquLjU4- has been confirmed
Track | CTDB Status
  1   | (5/5) Accurately ripped
  2   | (5/5) Accurately ripped
  3   | (5/5) Accurately ripped
  4   | (5/5) Accurately ripped
  5   | (5/5) Accurately ripped
  6   | (5/5) Accurately ripped
  7   | (5/5) Accurately ripped
  8   | (5/5) Accurately ripped
  9   | (5/5) Accurately ripped
 10   | (5/5) Accurately ripped
 11   | (5/5) Accurately ripped
==== Контрольная сумма отчёта F3F13E326E65ACEE5803CD50BF0F2A616F5298A8426E357C8F3D2FFA7388E24E ====
Код:
REM GENRE Dance
REM DATE 1979
REM DISCID A60C050B
REM COMMENT "ExactAudioCopy v1.3"
PERFORMER "Belle Epoque"
TITLE "Now"
REM COMPOSER ""
FILE "Belle Epoque - Now.flac" WAVE
  TRACK 01 AUDIO
    TITLE "Jump Down"
    PERFORMER "Belle Epoque"
    REM COMPOSER ""
    INDEX 01 00:00:00
  TRACK 02 AUDIO
    TITLE "Gimme Time"
    PERFORMER "Belle Epoque"
    REM COMPOSER ""
    INDEX 00 05:43:48
    INDEX 01 05:45:48
  TRACK 03 AUDIO
    TITLE "Lose My Man"
    PERFORMER "Belle Epoque"
    REM COMPOSER ""
    INDEX 00 09:23:57
    INDEX 01 09:25:57
  TRACK 04 AUDIO
    TITLE "Now"
    PERFORMER "Belle Epoque"
    REM COMPOSER ""
    INDEX 00 14:15:73
    INDEX 01 14:17:73
  TRACK 05 AUDIO
    TITLE "My Life"
    PERFORMER "Belle Epoque"
    REM COMPOSER ""
    INDEX 00 19:50:56
    INDEX 01 19:52:56
  TRACK 06 AUDIO
    TITLE "Loving You"
    PERFORMER "Belle Epoque"
    REM COMPOSER ""
    INDEX 00 24:15:62
    INDEX 01 24:17:62
  TRACK 07 AUDIO
    TITLE "Stranger Once Again"
    PERFORMER "Belle Epoque"
    REM COMPOSER ""
    INDEX 00 30:15:63
    INDEX 01 30:17:63
  TRACK 08 AUDIO
    TITLE "Comon Tonight"
    PERFORMER "Belle Epoque"
    REM COMPOSER ""
    INDEX 00 35:22:27
    INDEX 01 35:24:27
  TRACK 09 AUDIO
    TITLE "La France C'est L'Amour"
    PERFORMER "Belle Epoque"
    REM COMPOSER ""
    INDEX 00 39:17:40
    INDEX 01 39:21:40
  TRACK 10 AUDIO
    TITLE "Island Of Emotion"
    PERFORMER "Belle Epoque"
    REM COMPOSER ""
    INDEX 00 43:11:33
    INDEX 01 43:13:33
  TRACK 11 AUDIO
    TITLE "Miss You"
    PERFORMER "Belle Epoque"
    REM COMPOSER ""
    INDEX 00 46:46:25
    INDEX 01 46:48:25
Код:
-----------------------
DON'T MODIFY THIS FILE
-----------------------
PERFORMER: auCDtect Task Manager, ver. 1.6.0 RC1 build 1.6.0.1
Copyright (c) 2008-2010 y-soft. All rights reserved
[url=http://y-soft.org]http://y-soft.org[/url]
ANALYZER: auCDtect: CD records authenticity detector, version 0.8.2
Copyright (c) 2004 Oleg Berngardt. All rights reserved.
Copyright (c) 2004 Alexander Djourik. All rights reserved.
FILE: Belle Epoque - Now.flac
  Size: 337448266 Hash: 6143B9848880A282EA6A32C5956C6B2B Accuracy: -m0
  Conclusion: CDDA 100%
  Signature: 96314DDF1AD4D3BCF404122D092117938A5BC4A9
.
загрузка...
Правила, инструкции, FAQ!!!
Торрент  Добавлен [16 сен 2018, 18:48] Скачать торрент Магнет ссылка
Скачать торрент
[ Размер 17.26 КБ / Просмотров 3 ]

Статус
Проверен 
 
Размер  782.77 МБ
Приватный: Нет (DHT включён)
.torrent скачан  1
Как залить торрент? | Как скачать Torrent? | Ошибка в торренте? Качайте магнет  


     Отправить личное сообщение
   
Страница 1 из 1
Показать сообщения за:  Поле сортировки  
Начать новую тему Ответить на тему

   Похожие торренты   Автор   Ответы   Просмотры   Последнее сообщение 
В этой теме нет новых непрочитанных сообщений. Скачать торрент Проверен (Disco, Electronic) [LP] [32/192] Belle Epoque - Коллекция (3 LP) - 1977-1979, WavPack (image+.cue)

в форуме Зарубежная поп-музыка (оцифровки), Размер: 5.5 ГБ, Здоровье: 100%

Anonymous

0
70|19

23
6

22 янв 2018, 01:58

Anonymous Перейти к последнему сообщению

В этой теме нет новых непрочитанных сообщений. Скачать торрент Проверен (Disco) [LP] [24/192] Belle Epoque - Коллекция (2 LP) - 1977-1978 FLAC (image+.cue)

в форуме Зарубежная поп-музыка (оцифровки), Размер: 2.43 ГБ, Здоровье: 0%

Anonymous

0
0|0

3
0

19 янв 2018, 15:06

Anonymous Перейти к последнему сообщению

В этой теме нет новых непрочитанных сообщений. Скачать торрент Проверен (Electronic, Funk, Soul, Pop, Disco) [LP] [24/192] Belle Epoque - Now - 1979, FLAC (image+.cue)

в форуме Зарубежная поп-музыка (оцифровки), Размер: 1.51 ГБ, Здоровье: 100%

Anonymous

0
1|0

3
0

21 янв 2018, 01:49

Anonymous Перейти к последнему сообщению

В этой теме нет новых непрочитанных сообщений. Скачать торрент Проверен (Disco) [LP] [32/192] Belle Epoque - Коллекция (2 LP) - 1977-1978, WavPack (image+.cue)

в форуме Зарубежная поп-музыка (оцифровки), Размер: 2.82 ГБ, Здоровье: 100%

Anonymous

0
12|2

15
2

21 янв 2018, 09:56

Anonymous Перейти к последнему сообщению

В этой теме нет новых непрочитанных сообщений. Скачать торрент Проверен (Disco) Belle Epoque & Evelyne Lenton - 5 albums, 1977-2007, APE (image+.cue), lossless

в форуме Зарубежная музыка, Размер: 1.31 ГБ, Здоровье: 100%

Anonymous

0
12|5

259
2

07 окт 2017, 16:36

Anonymous Перейти к последнему сообщению



Сейчас этот форум просматривают: нет зарегистрированных пользователей и гости: 0


Вы не можете начинать темы
Вы не можете отвечать на сообщения
Вы не можете редактировать свои сообщения
Вы не можете удалять свои сообщения
Вы не можете добавлять вложения

Перейти:  
Ресурс не предоставляет электронные версии произведений, а занимается лишь коллекционированием и каталогизацией ссылок, присылаемых и публикуемых на форуме нашими читателями. Если вы являетесь правообладателем какого-либо представленного материала и не желаете чтобы ссылка на него находилась в нашем каталоге, свяжитесь с нами и мы незамедлительно удалим её. Файлы для обмена на трекере предоставлены пользователями сайта, и администрация не несёт ответственности за их содержание. Просьба не заливать файлы, защищенные авторскими правами, а также файлы нелегального содержания!
cron