На всех торрентах на трекере установлена скидка на скачивание в размере 100 процентов(а).
 Возможность скачивания торрента НЕ зависит от ограничений при низком ратио, низком аплоаде, требуемом ратио или требуемом аплоаде.


Начать новую тему Ответить на тему
Статистика раздачи
Размер: 186.29 МБ | Добавлен: 15 окт 2016, 21:01 | Скачали: 0
Сидеров: 0  [0 байт/сек]    Личеров: 0  [0 байт/сек]
Пред. тема | След. тема 

Автор
Сообщение

СообщениеДобавлено: 15 окт 2016, 21:01 

Ответить с цитатой 

Howlin' Wolf & the Wolf Gang - Evil - Live At Joe's Place 1973

Жанр: Electric Chicago Blues
Дата выхода диска: January 19, 1995
Лейбл: Wolf Records / 120.100 CD [родоначальник серии о_О)]
Тип рипа: FLAC, tracks+.cue, lossless
Продолжительность: 65'06"
Сканы в раздаче: присутствуют

01. Ode To Billy Joe [06:20]
02. Stormy Monday [05:18]
03. Call My Job [04:29]
04. Little Red Rooster [06:15]
05. Goin' Down Slow [08:10]
06. Evil [06:18]
07. Blind Love [05:10]
08. Break Song [04:43]
09. Dust My Broom [04:25]
10. What's The Use [03:33]
11. Stoop Down Baby [04:34]
12. Harmony Of Love [03:27]
13. Workout [02:18]

Howlin' Wolf - Guitar, Vocals
Hubert Sumlin - Guitar
Detroit Junior - Piano, Vocals
Eddie Shaw - Saxophone, Vocals
Andrew McMahon - Bass, Vocals
S.P. Leary - Drums...all gratitudes goin' on to Ronnie
Код:
Exact Audio Copy V1.0 beta 3 from 29. August 2011

EAC extraction logfile from 9. November 2013, 13:49

Howlin' Wolf And The Wolf Gang / Evil - Live At Joe's Place 1973

Used drive  : Memorex MRX-800LU v2   Adapter: 5  ID: 0

Read mode : [color=red]Burst[/color]

Read offset correction                      : 6
Overread into Lead-In and Lead-Out          : No
Fill up missing offset samples with silence : Yes
Delete leading and trailing silent blocks   : No
Null samples used in CRC calculations       : Yes
Used interface                              : Native Win32 interface for Win NT & 2000
Gap handling                                : Appended to previous track

Used output format              : User Defined Encoder
Selected bitrate                : 768 kBit/s
Quality                         : High
Add ID3 tag                     : No
Command line compressor         : C:\Program Files (x86)\Exact Audio Copy - Copy\FLAC\FLAC.EXE
Additional command line options : -6 -V -T "ARTIST=%artist%" -T "TITLE=%title%" -T "ALBUM=%albumtitle%" -T
"DATE=%year%" -T "TRACKNUMBER=%tracknr%" -T "GENRE=%genre%" -T "COMMENT=%comment%" -T "BAND=%albuminterpret%" -T
"ALBUMARTIST=%albuminterpret%" -T "COMPOSER=%composer%" %haslyrics%--tag-from-file=LYRICS="%lyricsfile%"%haslyrics%
-T "DISCNUMBER=%cdnumber%" -T "TOTALDISCS=%totalcds%" -T "TOTALTRACKS=%numtracks%"
%hascover%--picture="%coverfile%"%hascover% %source% -o %dest%

TOC of the extracted CD

     Track |   Start  |  Length  | Start sector | End sector
    ---------------------------------------------------------
        1  |  0:00.33 |  6:20.50 |        33    |    28582
        2  |  6:21.08 |  5:18.20 |     28583    |    52452
        3  | 11:39.28 |  4:29.67 |     52453    |    72694
        4  | 16:09.20 |  6:15.58 |     72695    |   100877
        5  | 22:25.03 |  8:10.65 |    100878    |   137692
        6  | 30:35.68 |  6:18.57 |    137693    |   166099
        7  | 36:54.50 |  5:10.05 |    166100    |   189354
        8  | 42:04.55 |  4:43.53 |    189355    |   210632
        9  | 46:48.33 |  4:25.02 |    210633    |   230509
       10  | 51:13.35 |  3:33.33 |    230510    |   246517
       11  | 54:46.68 |  4:34.72 |    246518    |   267139
       12  | 59:21.65 |  3:27.18 |    267140    |   282682
       13  | 62:49.08 |  2:18.10 |    282683    |   293042

Track  1

     Filename E:\Rips\Howlin' Wolf And The Wolf Gang - 1995 - Evil - Live At Joe's Place 1973\01 - Ode To Billy

Joe.wav

     Pre-gap length  0:00:02.33

     Peak level 100.0 %
     Extraction speed 7.5 X
     Test CRC 059E4581
     Copy CRC 059E4581
     Cannot be verified as accurate (confidence 1)  [3CF10502], AccurateRip returned [EF1CCA62]  (AR v2)
     Copy OK

Track  2

     Filename E:\Rips\Howlin' Wolf And The Wolf Gang - 1995 - Evil - Live At Joe's Place 1973\02 - Stormy Monday.wav

     Pre-gap length  0:00:02.35

     Peak level 67.7 %
     Extraction speed 8.7 X
     Test CRC CD43BC88
     Copy CRC CD43BC88
     Cannot be verified as accurate (confidence 1)  [1CBDE201], AccurateRip returned [5ED98E21]  (AR v2)
     Copy OK

Track  3

     Filename E:\Rips\Howlin' Wolf And The Wolf Gang - 1995 - Evil - Live At Joe's Place 1973\03 - Call My Job.wav

     Pre-gap length  0:00:02.40

     Peak level 77.1 %
     Extraction speed 9.5 X
     Test CRC 37904032
     Copy CRC 37904032
     Cannot be verified as accurate (confidence 1)  [52AF62E9], AccurateRip returned [FD065FE7]  (AR v2)
     Copy OK

Track  4

     Filename E:\Rips\Howlin' Wolf And The Wolf Gang - 1995 - Evil - Live At Joe's Place 1973\04 - Little Red

Rooster.wav

     Pre-gap length  0:00:02.37

     Peak level 100.0 %
     Extraction speed 10.3 X
     Test CRC 6EBE7FDF
     Copy CRC 6EBE7FDF
     Cannot be verified as accurate (confidence 1)  [6436C504], AccurateRip returned [F4F92ADF]  (AR v2)
     Copy OK

Track  5

     Filename E:\Rips\Howlin' Wolf And The Wolf Gang - 1995 - Evil - Live At Joe's Place 1973\05 - Goin' Down

Slow.wav

     Pre-gap length  0:00:02.40

     Peak level 93.4 %
     Extraction speed 11.3 X
     Test CRC CF497D94
     Copy CRC CF497D94
     Cannot be verified as accurate (confidence 1)  [A3723DE2], AccurateRip returned [9102EF38]  (AR v2)
     Copy OK

Track  6

     Filename E:\Rips\Howlin' Wolf And The Wolf Gang - 1995 - Evil - Live At Joe's Place 1973\06 - Evil.wav

     Pre-gap length  0:00:02.68

     Peak level 88.5 %
     Extraction speed 12.3 X
     Test CRC DEA34111
     Copy CRC DEA34111
     Cannot be verified as accurate (confidence 1)  [DC393999], AccurateRip returned [2ACF3395]  (AR v2)
     Copy OK

Track  7

     Filename E:\Rips\Howlin' Wolf And The Wolf Gang - 1995 - Evil - Live At Joe's Place 1973\07 - Blind Love.wav

     Pre-gap length  0:00:02.35

     Peak level 87.6 %
     Extraction speed 13.0 X
     Test CRC EFC42F2D
     Copy CRC EFC42F2D
     Cannot be verified as accurate (confidence 1)  [678BF091], AccurateRip returned [AF327059]  (AR v2)
     Copy OK

Track  8

     Filename E:\Rips\Howlin' Wolf And The Wolf Gang - 1995 - Evil - Live At Joe's Place 1973\08 - Break Song.wav

     Pre-gap length  0:00:02.37

     Peak level 87.2 %
     Extraction speed 13.5 X
     Test CRC 9397A6F8
     Copy CRC 9397A6F8
     Cannot be verified as accurate (confidence 1)  [EF8D7E1D], AccurateRip returned [3137B798]  (AR v2)
     Copy OK

Track  9

     Filename E:\Rips\Howlin' Wolf And The Wolf Gang - 1995 - Evil - Live At Joe's Place 1973\09 - Dust My Broom.wav

     Pre-gap length  0:00:03.58

     Peak level 70.2 %
     Extraction speed 14.0 X
     Test CRC 6BB4433A
     Copy CRC 6BB4433A
     Cannot be verified as accurate (confidence 1)  [9AF4402F], AccurateRip returned [50E6764E]  (AR v2)
     Copy OK

Track 10

     Filename E:\Rips\Howlin' Wolf And The Wolf Gang - 1995 - Evil - Live At Joe's Place 1973\10 - What's The

Use.wav

     Pre-gap length  0:00:02.37

     Peak level 68.5 %
     Extraction speed 14.4 X
     Test CRC 8CFE4DE7
     Copy CRC 8CFE4DE7
     Cannot be verified as accurate (confidence 1)  [3AE55FCD], AccurateRip returned [590D2FB2]  (AR v2)
     Copy OK

Track 11

     Filename E:\Rips\Howlin' Wolf And The Wolf Gang - 1995 - Evil - Live At Joe's Place 1973\11 - Stoop Down

Baby.wav

     Pre-gap length  0:00:02.38

     Peak level 94.4 %
     Extraction speed 14.9 X
     Test CRC 72AB3444
     Copy CRC 72AB3444
     Cannot be verified as accurate (confidence 1)  [A84F223D], AccurateRip returned [29D043FC]  (AR v2)
     Copy OK

Track 12

     Filename E:\Rips\Howlin' Wolf And The Wolf Gang - 1995 - Evil - Live At Joe's Place 1973\12 - Harmony Of

Love.wav

     Pre-gap length  0:00:02.65

     Peak level 88.5 %
     Extraction speed 15.3 X
     Test CRC 45F9134B
     Copy CRC 45F9134B
     Cannot be verified as accurate (confidence 1)  [4BB86938], AccurateRip returned [2E7E2E09]  (AR v2)
     Copy OK

Track 13

     Filename E:\Rips\Howlin' Wolf And The Wolf Gang - 1995 - Evil - Live At Joe's Place 1973\13 - Workout.wav

     Pre-gap length  0:00:02.35

     Peak level 64.8 %
     Extraction speed 15.5 X
     Test CRC DFA4DB69
     Copy CRC DFA4DB69
     Cannot be verified as accurate (confidence 1)  [EADB9621], AccurateRip returned [FE155AC1]  (AR v2)
     Copy OK

No tracks could be verified as accurate
You may have a different pressing from the one(s) in the database

No errors occurred

End of status report
Код:
REM GENRE Blues
REM DATE 1995
REM DISCID B70F430D
REM COMMENT "ExactAudioCopy v1.0b3"
PERFORMER "Howlin' Wolf And The Wolf Gang"
TITLE "Evil - Live At Joe's Place 1973"
FILE "01 - Ode To Billy Joe.wav" WAVE
  TRACK 01 AUDIO
    TITLE "Ode To Billy Joe"
    PERFORMER "Howlin' Wolf And The Wolf Gang"
    PREGAP 00:00:33
    INDEX 01 00:00:00
  TRACK 02 AUDIO
    TITLE "Stormy Monday"
    PERFORMER "Howlin' Wolf And The Wolf Gang"
    INDEX 00 06:18:15
FILE "02 - Stormy Monday.wav" WAVE
    INDEX 01 00:00:00
  TRACK 03 AUDIO
    TITLE "Call My Job"
    PERFORMER "Howlin' Wolf And The Wolf Gang"
    INDEX 00 05:15:55
FILE "03 - Call My Job.wav" WAVE
    INDEX 01 00:00:00
  TRACK 04 AUDIO
    TITLE "Little Red Rooster"
    PERFORMER "Howlin' Wolf And The Wolf Gang"
    INDEX 00 04:27:30
FILE "04 - Little Red Rooster.wav" WAVE
    INDEX 01 00:00:00
  TRACK 05 AUDIO
    TITLE "Goin' Down Slow"
    PERFORMER "Howlin' Wolf And The Wolf Gang"
    INDEX 00 06:13:18
FILE "05 - Goin' Down Slow.wav" WAVE
    INDEX 01 00:00:00
  TRACK 06 AUDIO
    TITLE "Evil"
    PERFORMER "Howlin' Wolf And The Wolf Gang"
    INDEX 00 08:07:72
FILE "06 - Evil.wav" WAVE
    INDEX 01 00:00:00
  TRACK 07 AUDIO
    TITLE "Blind Love"
    PERFORMER "Howlin' Wolf And The Wolf Gang"
    INDEX 00 06:16:22
FILE "07 - Blind Love.wav" WAVE
    INDEX 01 00:00:00
  TRACK 08 AUDIO
    TITLE "Break Song"
    PERFORMER "Howlin' Wolf And The Wolf Gang"
    INDEX 00 05:07:43
FILE "08 - Break Song.wav" WAVE
    INDEX 01 00:00:00
  TRACK 09 AUDIO
    TITLE "Dust My Broom"
    PERFORMER "Howlin' Wolf And The Wolf Gang"
    INDEX 00 04:39:70
FILE "09 - Dust My Broom.wav" WAVE
    INDEX 01 00:00:00
  TRACK 10 AUDIO
    TITLE "What's The Use"
    PERFORMER "Howlin' Wolf And The Wolf Gang"
    INDEX 00 04:22:40
FILE "10 - What's The Use.wav" WAVE
    INDEX 01 00:00:00
  TRACK 11 AUDIO
    TITLE "Stoop Down Baby"
    PERFORMER "Howlin' Wolf And The Wolf Gang"
    INDEX 00 03:30:70
FILE "11 - Stoop Down Baby.wav" WAVE
    INDEX 01 00:00:00
  TRACK 12 AUDIO
    TITLE "Harmony Of Love"
    PERFORMER "Howlin' Wolf And The Wolf Gang"
    INDEX 00 04:32:07
FILE "12 - Harmony Of Love.wav" WAVE
    INDEX 01 00:00:00
  TRACK 13 AUDIO
    TITLE "Workout"
    PERFORMER "Howlin' Wolf And The Wolf Gang"
    INDEX 00 03:24:58
FILE "13 - Workout.wav" WAVE
    INDEX 01 00:00:00
Код:
Размеры разжатых вавов отличались при распаковке в [u][b]4 раза[/b][/u]  О_О  первый раз такое сжатие вижу
-----------------------

DON'T MODIFY THIS FILE

-----------------------

PERFORMER: auCDtect Task Manager, ver. 1.5.1RC3 build 1.5.1.4
Copyright (c) 2008-2010 y-soft. All rights reserved
[url=http://y-soft.org]http://y-soft.org[/url]

ANALYZER: auCDtect: CD records authenticity detector, version 0.8.2
Copyright (c) 2004 Oleg Berngardt. All rights reserved.
Copyright (c) 2004 Alexander Djourik. All rights reserved.

FILE: 13 - Workout.flac
  Size: 6272360 Hash: 3764EBBDE135D0F8CF2DCEC150486FEB Accuracy: -m0
  Conclusion: CDDA 100%
  Signature: F65F512ECD71EDCD3C44C63EE918ED9646F7C718
FILE: 12 - Harmony Of Love.flac
  Size: 10480664 Hash: 70D5A07073AF3F3A699D7C6A110540A2 Accuracy: -m0
  Conclusion: CDDA 100%
  Signature: 196074DF502EEB593CE9195A0DBEAA307FD43562
FILE: 11 - Stoop Down Baby.flac
  Size: 13822180 Hash: 407E19FB6CAF7EF576F9025E2966E901 Accuracy: -m0
  Conclusion: CDDA 100%
  Signature: D1A16B272A425B38D62EE08C5FF4737613446180
FILE: 10 - What's The Use.flac
  Size: 9678071 Hash: FE2F2B8A8B215687FB811963454FA80E Accuracy: -m0
  Conclusion: CDDA 100%
  Signature: EF0C332E992A6DFD7B100548B17F617291BCAE5B
FILE: 09 - Dust My Broom.flac
  Size: 11918950 Hash: BD0EFD8FC4C0C69D6BE42EF3612A0071 Accuracy: -m0
  Conclusion: CDDA 100%
  Signature: A051B64F5DB68DE321BDF3CA47B578B6CCE62072
FILE: 08 - Break Song.flac
  Size: 14388036 Hash: 1F816BF191D74163973A328E45E013C4 Accuracy: -m0
  Conclusion: CDDA 100%
  Signature: FC35E03065494154225F6164959942522D575AF1
FILE: 07 - Blind Love.flac
  Size: 15287286 Hash: 00D30604BB06FBD3CB0559097A9932F2 Accuracy: -m0
  Conclusion: CDDA 100%
  Signature: A44EDC029437E0ADFFAD35308F361BD8833A5403
FILE: 06 - Evil.flac
  Size: 17766593 Hash: 6928477869E533769D1876A67773BF88 Accuracy: -m0
  Conclusion: CDDA 100%
  Signature: 853BD6FFE12B156B0ECAB36312268F9C3007FDD1
FILE: 05 - Goin' Down Slow.flac
  Size: 23244073 Hash: 679D7A6F3D038090BA6A47AC94EFF9FB Accuracy: -m0
  Conclusion: CDDA 100%
  Signature: 2A3F0C0D7D114D33129A73F85A0A59B6B77683BE
FILE: 04 - Little Red Rooster.flac
  Size: 17501405 Hash: 3A1EADB6F5CFFC8E46637BB62F05F657 Accuracy: -m0
  Conclusion: CDDA 100%
  Signature: 8EBB63DA8E5FE7023E7BABF0EF7DF6D0000A2EC0
FILE: 03 - Call My Job.flac
  Size: 12120877 Hash: B115E2521BE692294A980F37B08BBE6D Accuracy: -m0
  Conclusion: CDDA 100%
  Signature: C1B74F26BF5BB6552E82C4EF31237B46B7906B86
FILE: 02 - Stormy Monday.flac
  Size: 13669245 Hash: A1D42FBCA178923D7AEBB59845D6CFC2 Accuracy: -m0
  Conclusion: CDDA 100%
  Signature: 9383FC67D060A4C0E4851E3C3D02E49723ED0738
FILE: 01 - Ode To Billy Joe.flac
  Size: 19223260 Hash: 4A77B458882AFB0D694F2D71DBD31743 Accuracy: -m0
  Conclusion: CDDA 100%
  Signature: 2BD27AE8DE464FF1BA3D73D06BE502EDA7E20929

[b]
загрузка...
Правила, инструкции, FAQ!!!
Торрент  Добавлен [15 окт 2016, 21:01] Скачать торрент Магнет ссылка
Скачать торрент
[ Размер 16.19 КБ / Просмотров 16 ]

Статус
Проверен 
 
Размер  186.29 МБ
Приватный: Нет (DHT включён)
.torrent скачан  0
Как залить торрент? | Как скачать Torrent? | Как смотреть и слушать онлайн?  


     Отправить личное сообщение
   
Страница 1 из 1
Показать сообщения за:  Поле сортировки  
Начать новую тему Ответить на тему

   Похожие торренты   Автор   Ответы   Просмотры   Последнее сообщение 
В этой теме нет новых непрочитанных сообщений. Скачать торрент Проверен (Blues/Jazz) Howlin' Wolf and The Wolf Gang - Live At Ebbets Field - 1973, FLAC (tracks), lossless

в форуме Blues (Texas, Chicago, Modern and Others), Размер: 315.11 МБ, Здоровье: 0%

Anonymous

0
0|0

20
0

16 окт 2016, 09:52

Anonymous Перейти к последнему сообщению

В этой теме нет новых непрочитанных сообщений. Скачать торрент Проверен (Electric Chicago Blues, Psychedelic Funk) Howlin' Wolf - This Is Howlin' Wolf's New Album - 1969, FLAC (tracks+.cue), lossless

в форуме Blues (Texas, Chicago, Modern and Others), Размер: 251.43 МБ, Здоровье: 100%

Anonymous

0
3|1

57
0

16 окт 2016, 11:01

Anonymous Перейти к последнему сообщению

В этой теме нет новых непрочитанных сообщений. Скачать торрент Проверен (Blues) [CD] Howlin' Wolf - The Back Door Wolf - 1973 (1995), FLAC (image+.cue), lossless

в форуме Blues (Texas, Chicago, Modern and Others), Размер: 321.59 МБ, Здоровье: ???%

Anonymous

0
0|6

32
1

16 окт 2016, 11:00

Anonymous Перейти к последнему сообщению

В этой теме нет новых непрочитанных сообщений. Скачать торрент Проверен (Chicago Blues) Howlin' Wolf - The London Howlin' Wolf Sessions - 1971 (MCA Records USA 1989), FLAC (image+.cue), lossless

в форуме Blues (Texas, Chicago, Modern and Others), Размер: 227.18 МБ, Здоровье: 100%

Anonymous

0
11|4

48
0

16 окт 2016, 11:00

Anonymous Перейти к последнему сообщению

В этой теме нет новых непрочитанных сообщений. Скачать торрент Проверен (Chicago Blues) [CD] Howlin' Wolf - The London Howlin' Wolf Sessions (Germany Original, Chess/Vogue 600051) - 1984, FLAC (image+.cue), lossless

в форуме Blues (Texas, Chicago, Modern and Others), Размер: 238.07 МБ, Здоровье: 100%

Anonymous

0
1|0

50
0

15 окт 2016, 20:13

Anonymous Перейти к последнему сообщению



Сейчас этот форум просматривают: нет зарегистрированных пользователей и гости: 1


Вы не можете начинать темы
Вы не можете отвечать на сообщения
Вы не можете редактировать свои сообщения
Вы не можете удалять свои сообщения
Вы не можете добавлять вложения

Перейти:  

!ВНИМАНИЕ!
 Ресурс не предоставляет электронные версии произведений, а занимается лишь коллекционированием и каталогизацией ссылок, присылаемых и публикуемых на форуме нашими читателями. Если вы являетесь правообладателем какого-либо представленного материала и не желаете чтобы ссылка на него находилась в нашем каталоге, свяжитесь с нами и мы незамедлительно удалим её. Файлы для обмена на трекере предоставлены пользователями сайта, и администрация не несёт ответственности за их содержание. Просьба не заливать файлы, защищенные авторскими правами, а также файлы нелегального содержания!