На всех торрентах на трекере установлена скидка на скачивание в размере 100 процентов(а).
 Возможность скачивания торрента НЕ зависит от ограничений при низком ратио, низком аплоаде, требуемом ратио или требуемом аплоаде.


Начать новую тему Ответить на тему
Статистика раздачи
Размер: 1.81 ГБ | Добавлен: 11 июн 2018, 09:31 | Скачали: 0
Сидеров: 1  [0 байт/сек]    Личеров: 0  [0 байт/сек]
Пред. тема | След. тема 

Автор
Сообщение

СообщениеДобавлено: 11 июн 2018, 09:31 

Ответить с цитатой 

Дюнкерк / Dunkirk
Страна: Великобритания, Нидерланды, Франция, США
Жанр: военный, драма, исторический
Год выпуска: 2017
Продолжительность: 01:46:38
Перевод: Авторский (одноголосый закадровый) Андрей Гаврилов
Перевод 2: Авторский (одноголосый закадровый) Юрий Сербин (отдельно)
Субтитры: нет
Режиссер: Кристофер Нолан / Christopher Nolan
В ролях: Финн Уайтхед, Том Глинн-Карни, Джек Лауден, Гарри Стайлс, Анайрин Барнард, Джеймс Д’Арси, Барри Кеоган, Кеннет Брана, Киллиан Мёрфи
Описание: Дюнкерская операция в самом начале Второй мировой войны едва не стала причиной гибели сотен тысяч солдат. Но их жизни были чудесным образом спасены. Действие фильма разворачивается с момента окружения вражескими армиями британских и союзных войск. Ловушка – самое побережье. К морю спиной, в неотвратимом кольце, окруженные пытаются противостоять в, казалось бы, гибельной ситуации…

Сэмпл: http://multi-up.com/1200614
Качество видео: BDRip (Исходник BDRemux 1080p)
Формат видео: AVI
Видео: XviD 73, 720x400, (16:9), 23,976 fps, 1520 Кбит/с, 8 бит
Аудио: Русский (АС3, 6 ch (Front: L C R, Side: L R, LFE), 48,0 KHz, 448 Kbps) Андрей Гаврилов
Аудио 2: Русский (АС3, 6 ch (Front: L C R, Side: L R, LFE), 48,0 KHz, 448 Kbps) Юрий Сербин (отдельно)
Код:
Общее
Полное имя                               : H:\Фильмы на трекер\Дюнкерк  (военный, драма, исторический 2017 год).avi
Формат                                   : AVI
Формат/Информация                        : Audio Video Interleave
Размер файла                             : 1,47 Гбайт
Продолжительность                        : 1 ч. 46 м.
Общий поток                              : 1978 Кбит/сек
Программа кодирования                    : VirtualDubMod 1.5.10.2 (build 2540/release)
Библиотека кодирования                   : VirtualDubMod build 2540/release
Видео
Идентификатор                            : 0
Формат                                   : MPEG-4 Visual
Профиль формата                          : Advanced Simple@L5
Параметр BVOP формата                    : 2
Параметр QPel формата                    : Нет
Параметр GMC формата                     : Без точки перехода
Параметр матрицы формата                 : Выборочная
Идентификатор кодека                     : XVID
Идентификатор кодека/Подсказка           : XviD
Продолжительность                        : 1 ч. 46 м.
Битрейт                                  : 1520 Кбит/сек
Ширина                                   : 720 пикселей
Высота                                   : 400 пикселей
Соотношение сторон                       : 16:9
Частота кадров                           : 23,976 (23976/1000) кадра/сек
Цветовое пространство                    : YUV
Субдискретизация насыщенности            : 4:2:0
Битовая глубина                          : 8 бит
Тип развёртки                            : Прогрессивная
Метод сжатия                             : С потерями
Бит/(Пиксели*Кадры)                      : 0.220
Размер потока                            : 1,13 Гбайт (77%)
Библиотека кодирования                   : XviD 73
Аудио
Идентификатор                            : 1
Формат                                   : AC-3
Формат/Информация                        : Audio Coding 3
Расширение режима                        : CM (complete main)
Параметр Endianness формата              : Big
Идентификатор кодека                     : 2000
Продолжительность                        : 1 ч. 46 м.
Вид битрейта                             : Постоянный
Битрейт                                  : 448 Кбит/сек
Каналы                                   : 6 каналов
Расположение каналов                     : Front: L C R, Side: L R, LFE
Частота                                  : 48,0 КГц
Частота кадров                           : 31,250 кадров/сек (1536 spf)
Метод сжатия                             : С потерями
Размер потока                            : 342 Мбайт (23%)
Выравнивание                             : Разделение по промежуткам
Продолжительность промежутка             : 42  мс. (1,00 видеокадр)
Время предзагрузки промежутка            : 500  мс.
Правила, инструкции, FAQ!!!
Торрент  Добавлен [11 июн 2018, 09:31] Скачать торрент Магнет ссылка
Скачать торрент
[ Размер 18.86 КБ / Просмотров 9 ]

Статус
Проверен 
 
Размер  1.81 ГБ
Приватный: Нет (DHT включён)
.torrent скачан  0
Как залить торрент? | Как скачать Torrent? | Ошибка в торренте? Качайте магнет  


     Отправить личное сообщение
   
Страница 1 из 1
Показать сообщения за:  Поле сортировки  
Начать новую тему Ответить на тему

   Похожие торренты   Автор   Ответы   Просмотры   Последнее сообщение 
В этой теме нет новых непрочитанных сообщений. Скачать торрент Проверен Дюнкерк / Dunkirk (Кристофер Нолан / Christopher Nolan) [2017, Нидерланды, Великобритания, Франция, США, военный, драма, история, BDRip] [IMAX] Dub

в форуме Фильмы 2016-2017, Размер: 748.07 МБ, Здоровье: 100%

Anonymous

0
34|11

15
0

03 фев 2018, 20:04

Anonymous Перейти к последнему сообщению

В этой теме нет новых непрочитанных сообщений. Скачать торрент Проверен Дюнкерк / Dunkirk (Кристофер Нолан / Christopher Nolan) [2017, Нидерланды, Великобритания, Франция, США, военный, драма, история, BDRip] [IMAX] Dub + Sub (Rus, Eng) + Original Eng

в форуме Фильмы 2016-2017, Размер: 2.18 ГБ, Здоровье: 0%

Anonymous

0
0|0

12
0

03 фев 2018, 20:17

Anonymous Перейти к последнему сообщению

В этой теме нет новых непрочитанных сообщений. Скачать торрент Проверен Дюнкерк / Dunkirk (Кристофер Нолан / Christopher Nolan) [2017, Великобритания, Нидерланды, Франция, США, военный, драма, история, BDRip-AVC] [IMAX] Dub + Original (eng) + Sub (rus, eng)

в форуме Фильмы 2016-2017, Размер: 2.87 ГБ, Здоровье: 100%

Anonymous

0
69|23

20
0

04 фев 2018, 15:07

Anonymous Перейти к последнему сообщению

В этой теме нет новых непрочитанных сообщений. Скачать торрент Проверен Дюнкерк / Dunkirk (Кристофер Нолан / Christopher Nolan) [2017, Великобритания, США, Франция, Нидерланды, военный, драма, история, BDRip-AVC] [IMAX] Dub + Original Eng + Subs (Rus, Eng)

в форуме Фильмы 2016-2017, Размер: 2.19 ГБ, Здоровье: 0%

Anonymous

0
0|0

5
0

03 фев 2018, 20:43

Anonymous Перейти к последнему сообщению

В этой теме нет новых непрочитанных сообщений. Скачать торрент Проверен Дюнкерк / Dunkirk (Кристофер Нолан / Christopher Nolan) [2017, Великобритания, Нидерланды, Франция, США, Военный, драма, история, BDRip-AVC] Dub + Sub Rus, Eng + Original Eng

в форуме Фильмы 2016-2017, Размер: 3.8 ГБ, Здоровье: 100%

Anonymous

0
130|33

76
2

04 фев 2018, 15:08

Anonymous Перейти к последнему сообщению



Сейчас этот форум просматривают: нет зарегистрированных пользователей и гости: 0


Вы не можете начинать темы
Вы не можете отвечать на сообщения
Вы не можете редактировать свои сообщения
Вы не можете удалять свои сообщения
Вы не можете добавлять вложения

Перейти:  
Ресурс не предоставляет электронные версии произведений, а занимается лишь коллекционированием и каталогизацией ссылок, присылаемых и публикуемых на форуме нашими читателями. Если вы являетесь правообладателем какого-либо представленного материала и не желаете чтобы ссылка на него находилась в нашем каталоге, свяжитесь с нами и мы незамедлительно удалим её. Файлы для обмена на трекере предоставлены пользователями сайта, и администрация не несёт ответственности за их содержание. Просьба не заливать файлы, защищенные авторскими правами, а также файлы нелегального содержания!
cron