На всех торрентах на трекере установлена скидка на скачивание в размере 100 процентов(а).
 Возможность скачивания торрента НЕ зависит от ограничений при низком ратио, низком аплоаде, требуемом ратио или требуемом аплоаде.


Начать новую тему Ответить на тему
Статистика раздачи
Размер: 789.54 МБ | Добавлен: 24 окт 2014, 21:44 | Скачали: 72
Сидеров: 97  [0 байт/сек]    Личеров: 66  [0 байт/сек]
Пред. тема | След. тема 

Автор
Сообщение

СообщениеДобавлено: 24 окт 2014, 21:44 

Ответить с цитатой 

Название: Драконы: Гонки бесстрашных. Начало
Оригинальное название: Dragons: Dawn of the Dragon Racers
Год выхода: 2014
Жанр: Комедия, приключения, семейный, короткометражный
Режиссер: Джон Санфорд, Илэйн Боган
В ролях: Джей Барушель, Америка Феррера, Кристофер Минц-Плассе, ТиДжей Миллер, Нолан Норт, Крис Эджерли, Зак Перлман

О фильме:
Поиски пропавшей овцы превращаются в соревнование между Иккингом и его друзьями за титул первого чемпиона драконьих гонок Олуха. Это история о расцвете драконьих гонок, и о том, как они стали самым популярным видом спорта на Олухе. События короткометражки происходят после событий второго сезона сериала "Драконы: Защитники Олуха" и до событий полнометражного фильма "Как приручить дракона 2".
За исходник СПАСИБО - Rishkhaan
Рип - Викс
Общее
Уникальный идентификатор : 177123738610085748243132526106419834623 (0x8540CA8C6AD51682BB2D2FAACD0AAEFF)
Полное имя : D:Dragons.Dawn.of.the.Dragon.Racers.2014.x264.BDRip.720p-MediaClub.mkv
Формат : Matroska
Версия формата : Version 2
Размер файла : 790 Мбайт
Продолжительность : 26 м.
Общий поток : 4146 Кбит/сек
Название фильма : Dragons: Dawn of the Dragon Racers (2014) BDRip 720p =MediaClub= [Викс]
Дата кодирования : UTC 2014-10-24 15:32:27
Программа кодирования : mkvmerge v4.2.0 ('No Talking') сборка от Jul 28 2010 18:38:23
Библиотека кодирования : libebml v1.0.0 + libmatroska v1.0.0

Видео
Идентификатор : 1
Формат : AVC
Формат/Информация : Advanced Video Codec
Профиль формата : High@L4.1
Параметр CABAC формата : Да
Параметр ReFrames формата : 9 кадров
Идентификатор кодека : V_MPEG4/ISO/AVC
Продолжительность : 26 м.
Битрейт : 3250 Кбит/сек
Ширина : 1280 пикселей
Высота : 720 пикселей
Соотношение сторон : 16:9
Режим частоты кадров : Постоянный
Частота кадров : 23,976 кадра/сек
Цветовое пространство : YUV
Субдискретизация насыщенности : 4:2:0
Битовая глубина : 8 бит
Тип развёртки : Прогрессивная
Бит/(Пиксели*Кадры) : 0.147
Размер потока : 603 Мбайт (76%)
Библиотека кодирования : x264 core 142 r2431 ac76440
Настройки программы : cabac=1 / ref=9 / deblock=1:-3:-3 / analyse=0x3:0x113 / me=umh / subme=11 / psy=1 / psy_rd=1.00:0.00 / mixed_ref=1 / me_range=48 / chroma_me=1 / trellis=2 / 8x8dct=1 / cqm=0 / deadzone=21,11 / fast_pskip=0 / chroma_qp_offset=-2 / threads=12 / lookahead_threads=2 / sliced_threads=0 / nr=0 / decimate=0 / interlaced=0 / bluray_compat=0 / constrained_intra=0 / bframes=8 / b_pyramid=2 / b_adapt=2 / b_bias=0 / direct=3 / weightb=1 / open_gop=0 / weightp=2 / keyint=230 / keyint_min=23 / scenecut=40 / intra_refresh=0 / rc_lookahead=40 / rc=2pass / mbtree=0 / bitrate=3250 / ratetol=1.0 / qcomp=0.60 / qpmin=0 / qpmax=69 / qpstep=4 / cplxblur=20.0 / qblur=0.5 / vbv_maxrate=50000 / vbv_bufsize=55000 / nal_hrd=none / filler=0 / ip_ratio=1.40 / pb_ratio=1.30 / aq=1:0.80
Язык : English
Default : Да
Forced : Нет

Аудио #1
Идентификатор : 2
Формат : AC-3
Формат/Информация : Audio Coding 3
Расширение режима : CM (complete main)
Параметр Endianness формата : Big
Идентификатор кодека : A_AC3
Продолжительность : 26 м.
Вид битрейта : Постоянный
Битрейт : 448 Кбит/сек
Каналы : 6 каналов
Расположение каналов : Front: L C R, Side: L R, LFE
Частота : 48,0 КГц
Битовая глубина : 16 бит
Метод сжатия : С потерями
Размер потока : 85,3 Мбайт (11%)
Заголовок : Dublirovannuj (Nevafilm)
Язык : Russian
Default : Да
Forced : Нет

Аудио #2
Идентификатор : 3
Формат : AC-3
Формат/Информация : Audio Coding 3
Расширение режима : CM (complete main)
Параметр Endianness формата : Big
Идентификатор кодека : A_AC3
Продолжительность : 26 м.
Вид битрейта : Постоянный
Битрейт : 448 Кбит/сек
Каналы : 6 каналов
Расположение каналов : Front: L C R, Side: L R, LFE
Частота : 48,0 КГц
Битовая глубина : 16 бит
Метод сжатия : С потерями
Размер потока : 85,3 Мбайт (11%)
Язык : English
Default : Нет
Forced : Нет

Текст #1
Идентификатор : 4
Формат : UTF-8
Идентификатор кодека : S_TEXT/UTF8
Идентификатор кодека/Информация : UTF-8 Plain Text
Язык : Russian
Default : Да
Forced : Нет

Текст #2
Идентификатор : 5
Формат : UTF-8
Идентификатор кодека : S_TEXT/UTF8
Идентификатор кодека/Информация : UTF-8 Plain Text
Язык : English
Default : Нет
Forced : Нет

Страна: США
Студия: DreamWorks Animation
Продолжительность: 00:26:37
Перевод: Дублированный (Невафильм)

Файл
Кодек: x264
Качество: BDRip 720p
Видео: MPEG-4 AVC, 3250 Кбит/с, 1280x720, 23.976 кадр/с
Звук:
Аудио #1: Русский (AC3, 6 ch, 448 Кбит/с) / Дублированный (Невафильм)
Аудио #2: Английский (AC3, 6 ch, 448 Кбит/с)
Субтитры: Русские, английские

Семпл








Релиз от: Рип - Викс
Правила, инструкции, FAQ!!!
Торрент  Добавлен [24 окт 2014, 21:44] Скачать торрент Магнет ссылка
Скачать торрент
[ Размер 16.87 КБ / Просмотров 17 ]

Статус
Проверен 
 
Размер  789.54 МБ
Приватный: Нет (DHT включён)
.torrent скачан  72
Как залить торрент? | Как скачать Torrent? | Ошибка в торренте? Качайте магнет  
загрузка...


     Отправить личное сообщение
   
Страница 1 из 1
Показать сообщения за:  Поле сортировки  
Начать новую тему Ответить на тему

   Похожие торренты   Автор   Ответы   Просмотры   Последнее сообщение 
В этой теме нет новых непрочитанных сообщений. Скачать торрент Проверен Драконы: Гонки бесстрашных. Начало / Dragons: Dawn of the Dragon Racers (2014) BDRip | D | Лицензия

в форуме Зарубежные мультфильмы, Размер: 509.97 МБ, Здоровье: 100%

Anonymous

0
605|70

214
2130

24 окт 2014, 21:47

Anonymous Перейти к последнему сообщению

В этой теме нет новых непрочитанных сообщений. Скачать торрент Dragon Tales: Learn & Fly with Dragons / Маленькие драконы. Путешествие в страну знаний [L] [RUS / RUS] (2003) [4-6]

в форуме Детские, Размер: 630.52 МБ, Здоровье: 100%

Anonymous

0
2|1

90
0

21 апр 2014, 07:49

Anonymous Перейти к последнему сообщению

В этой теме нет новых непрочитанных сообщений. Скачать торрент Проверен Там обитают драконы / There Be Dragons (2011) BDRip 1080p

в форуме 720p | 1080p, Размер: 9.87 ГБ, Здоровье: 30%

Anonymous

0
9|30

117
11

28 ноя 2015, 00:18

Anonymous Перейти к последнему сообщению

В этой теме нет новых непрочитанных сообщений. Скачать торрент Защитники и Драконы / Defenders & Dragons (2014) Android

в форуме Android игры, Размер: 77.24 МБ, Здоровье: 100%

Anonymous

0
1|0

107
0

26 мар 2014, 22:00

Anonymous Перейти к последнему сообщению

В этой теме нет новых непрочитанных сообщений. Скачать торрент Проверен Я – начало / I Origins (2014) BDRip 720p | P | iTunes

в форуме 720p | 1080p, Размер: 6.59 ГБ, Здоровье: 100%

Гость

0
209|56

133
426

20 дек 2014, 00:50

Гость Перейти к последнему сообщению



Сейчас этот форум просматривают: нет зарегистрированных пользователей и гости: 0


Вы не можете начинать темы
Вы не можете отвечать на сообщения
Вы не можете редактировать свои сообщения
Вы не можете удалять свои сообщения
Вы не можете добавлять вложения

Перейти:  
Ресурс не предоставляет электронные версии произведений, а занимается лишь коллекционированием и каталогизацией ссылок, присылаемых и публикуемых на форуме нашими читателями. Если вы являетесь правообладателем какого-либо представленного материала и не желаете чтобы ссылка на него находилась в нашем каталоге, свяжитесь с нами и мы незамедлительно удалим её. Файлы для обмена на трекере предоставлены пользователями сайта, и администрация не несёт ответственности за их содержание. Просьба не заливать файлы, защищенные авторскими правами, а также файлы нелегального содержания!
cron