На всех торрентах на трекере установлена скидка на скачивание в размере 100 процентов(а).
 Возможность скачивания торрента НЕ зависит от ограничений при низком ратио, низком аплоаде, требуемом ратио или требуемом аплоаде.


Начать новую тему Ответить на тему
Статистика раздачи
Размер: 4.19 ГБ | Добавлен: 25 фев 2013, 20:26 | Скачали: 2
Сидеров: 58  [0 байт/сек]    Личеров: 18  [0 байт/сек]
Пред. тема | След. тема 

Автор
Сообщение

СообщениеДобавлено: 25 фев 2013, 20:26 

Ответить с цитатой 

Дорога на Эльдорадо / The Road to El Dorado


Страна: США
Жанр: мультфильм, приключения, семейный
Продолжительность: 01:29:26
Год выпуска: 2000
Перевод 1: Профессиональный (дублированный)
Перевод 2: Профессиональный (многоголосый закадровый)
Перевод 3: Профессиональный (Многоголосый закадровый) Премьер Мультимедиа
Перевод 4: Авторский (одноголосый закадровый) Сергей визгунов
Перевод 5: Авторский (одноголосый закадровый) Юрий Живов
Русские субтитры: есть

Режиссёр: Бибо Бержерон / Bibo Bergeron

Роли озвучивали: Кевин Клайн, Кеннет Брэна, Рози Перес, Арманд Ассанте, Эдвард Джеймс Олмос, Джим Каммингс, Фрэнк Уэлкер, Тобин Белл...

Вкратце: Тульо с Мигелем отпетые мошенники, обожающие золото, особенно когда оно достаётся без всяких усилий. Однажды они нашли карту мифического Эльдорадо, города золота. Так начинается путешествие друзей за сокровищем в далёкую Америку. С ними знаменитый конкистадор- Эрнан Кортес.


Качество: WEB-DL (720p)
Формат: MKV
Видео: 1280x718, MPEG-4 AVC (x264), (720p), 23.976, 4018 kbps
Аудио 1: Русский, AC3, 48000 Hz, 2 ch, 192 Kbps, [Дубляж]
Аудио 2: Русский, AC3, 48000 Hz, 6 ch, 384 Kbps, [Профессиональный многоголосый]
Аудио 3: Русский, AC3, 48000 Hz, 6 ch, 448 Kbps, [Профессиональный многоголосый] Премьер Мультимедиа - отдельно
Аудио 4: Русский, AC3, 48000 Hz, 6 ch, 448 Kbps, [Одноголосый закадровый] Сергей Визгунов - отдельно
Аудио 5: Русский, AC3, 48000 Hz, 6 ch, 448 Kbps, [Одноголосый закадровый] Юрий Живов - отдельно
Аудио 6: Украинский, AC3, 48000 Hz, 2 ch, 192 Kbps, [Двухголосый закадровый] канал Интер - отдельно
Аудио 7: Русский, AC3, 48000 Hz, 2 ch, 192 Kbps, [Одноголосый закадровый] Комментарии режиссеров - отдельно
Аудио 8: Английский, AC3, 48000 Hz, 6 ch, 384 Kbps, [Оригинал]
Субтитры: Русские, английские

General
Complete name : C:\Users\KIKA\Downloads\фильмы\Doroga.na.Eldorado.2000.x264.WEB-DL.720p\Doroga.na.Eldorado.2000.x264.WEB-DL.720p.DUB.ac3
Format : AC-3
Format/Info : Audio Coding 3
File size : 123 MiB
Duration : 1h 29mn
Overall bit rate : 192 Kbps

Audio
Format : AC-3
Format/Info : Audio Coding 3
Duration : 1h 29mn
Bit rate mode : Constant
Bit rate : 192 Kbps
Channel(s) : 2 channels
Channel positions : L R
Sampling rate : 48.0 KHz
Stream size : 123 MiB (100%)

General
Complete name : C:\Users\KIKA\Downloads\фильмы\Doroga.na.Eldorado.2000.x264.WEB-DL.720p\Doroga.na.Eldorado.2000.x264.WEB-DL.720p.mkv
Format : Matroska
File size : 3.11 GiB
Duration : 1h 29mn
Overall bit rate : 4 980 Kbps
Encoded date : UTC 2013-02-01 22:33:02
Writing application : mkvmerge v5.5.0 ('Healer') built on Apr 6 2012 21:43:24
Writing library : libebml v1.2.3 + libmatroska v1.3.0

Video
ID : 1
Format : AVC
Format/Info : Advanced Video Codec
Format profile : High@L3.1
Format settings, CABAC : No
Format settings, ReFrames : 2 frames
Muxing mode : Container profile=Unknown@3.1
Codec ID : V_MPEG4/ISO/AVC
Duration : 1h 29mn
Bit rate : 3 921 Kbps
Width : 1 280 pixels
Height : 718 pixels
Display aspect ratio : 16:9
Frame rate : 23.976 fps
Resolution : 8 bits
Colorimetry : 4:2:0
Scan type : Progressive
Bits/(Pixel*Frame) : 0.178
Stream size : 2.45 GiB (79%)
Color primaries : BT.709-5, BT.1361, IEC 61966-2-4, SMPTE RP177
Transfer characteristics : BT.709-5, BT.1361
Matrix coefficients : BT.709-5, BT.1361, IEC 61966-2-4 709, SMPTE RP177

Audio #1
ID : 2
Format : AC-3
Format/Info : Audio Coding 3
Codec ID : A_AC3
Duration : 1h 29mn
Bit rate mode : Constant
Bit rate : 384 Kbps
Channel(s) : 6 channels
Channel positions : Front: L C R, Surround: L R, LFE
Sampling rate : 48.0 KHz
Stream size : 246 MiB (8%)
Title : Оригинал

Audio #2
ID : 4
Format : AC-3
Format/Info : Audio Coding 3
Codec ID : A_AC3
Duration : 1h 29mn
Bit rate mode : Constant
Bit rate : 384 Kbps
Channel(s) : 6 channels
Channel positions : Front: L C R, Surround: L R, LFE
Sampling rate : 48.0 KHz
Stream size : 246 MiB (8%)
Title : Профессиональный многоголосый
Language : Russian

Audio #3
ID : 6
Format : AC-3
Format/Info : Audio Coding 3
Codec ID : A_AC3
Duration : 1h 29mn
Bit rate mode : Constant
Bit rate : 192 Kbps
Channel(s) : 2 channels
Channel positions : L R
Sampling rate : 48.0 KHz
Stream size : 123 MiB (4%)
Title : Русский дубляж
Language : Russian

Text #1
ID : 3
Format : UTF-8
Codec ID : S_TEXT/UTF8
Codec ID/Info : UTF-8 Plain Text
Title : Оригинал

Text #2
ID : 5
Format : ASS
Codec ID : S_TEXT/ASS
Codec ID/Info : Advanced Sub Station Alpha
Title : Русские
Language : Russian

Menu
00:00:00.000 : en:El Dorado (main titles)
00:04:03.000 : en:Loaded Dice
00:07:23.000 : en:Stowaways
00:10:38.000 : en:Overboard
00:14:02.000 : en:Beached
00:17:19.000 : en:The Trail We Blaze
00:20:28.000 : en:Great Big Rock
00:23:58.000 : en:Entering El Dorado
00:25:05.000 : en:Stopping the Volcano
00:30:15.000 : en:Cheldorado
00:34:46.000 : en:It's Tough to Be a God
00:37:23.000 : en:A Proper Tribute
00:42:27.000 : en:Three Days
00:46:31.000 : en:Age of the Jaguar
00:48:18.000 : en:Without Question
00:50:35.000 : en:Tzekel-kan's Advice
00:52:52.000 : en:Play Ball
00:57:48.000 : en:No Sacrifices
00:59:22.000 : en:Gods Don't Bleed
01:02:40.000 : en:Tulio and Chel - Deal
01:05:18.000 : en:Jaguar Attacks
01:10:02.000 : en:Tzekel-kan Emerges
01:11:34.000 : en:Friends Never Say Goodbye
01:14:43.000 : en:Cortes Approaches
01:16:59.000 : en:Got a Wave to Catch
01:19:46.000 : en:There's No El Dorado Here
01:21:12.000 : en:Follow That Trail
01:22:44.000 : en:Someday Out of the Blue (end credits)

General
Complete name : C:\Users\KIKA\Downloads\фильмы\Doroga.na.Eldorado.2000.x264.WEB-DL.720p\Doroga.na.Eldorado.2000.x264.WEB-DL.720p.torrent
File size : 22.4 KiB

General
Complete name : C:\Users\KIKA\Downloads\фильмы\Doroga.na.Eldorado.2000.x264.WEB-DL.720p\Doroga.na.Eldorado.2000.x264.WEB-DL.720p.Інтер.UKR.ac3
Format : AC-3
Format/Info : Audio Coding 3
File size : 123 MiB
Duration : 1h 29mn
Overall bit rate : 192 Kbps

Audio
Format : AC-3
Format/Info : Audio Coding 3
Duration : 1h 29mn
Bit rate mode : Constant
Bit rate : 192 Kbps
Channel(s) : 2 channels
Channel positions : L R
Sampling rate : 48.0 KHz
Stream size : 123 MiB (100%)

General
Complete name : C:\Users\KIKA\Downloads\фильмы\Doroga.na.Eldorado.2000.x264.WEB-DL.720p\Doroga.na.Eldorado.2000.x264.WEB-DL.720p.Комментарии.ac3
Format : AC-3
Format/Info : Audio Coding 3
File size : 123 MiB
Duration : 1h 29mn
Overall bit rate : 192 Kbps

Audio
Format : AC-3
Format/Info : Audio Coding 3
Duration : 1h 29mn
Bit rate mode : Constant
Bit rate : 192 Kbps
Channel(s) : 2 channels
Channel positions : L R
Sampling rate : 48.0 KHz
Stream size : 123 MiB (100%)

General
Complete name : C:\Users\KIKA\Downloads\фильмы\Doroga.na.Eldorado.2000.x264.WEB-DL.720p\Doroga.na.Eldorado.2000.x264.WEB-DL.720p.Премьер Мультимедиа.ac3
Format : AC-3
Format/Info : Audio Coding 3
File size : 287 MiB
Duration : 1h 29mn
Overall bit rate : 448 Kbps

Audio
Format : AC-3
Format/Info : Audio Coding 3
Duration : 1h 29mn
Bit rate mode : Constant
Bit rate : 448 Kbps
Channel(s) : 6 channels
Channel positions : Front: L C R, Surround: L R, LFE
Sampling rate : 48.0 KHz
Stream size : 287 MiB (100%)

General
Complete name : C:\Users\KIKA\Downloads\фильмы\Doroga.na.Eldorado.2000.x264.WEB-DL.720p\Doroga.na.Eldorado.2000.x264.WEB-DL.720p.Сергей Визгунов.ac3
Format : AC-3
Format/Info : Audio Coding 3
File size : 287 MiB
Duration : 1h 29mn
Overall bit rate : 448 Kbps

Audio
Format : AC-3
Format/Info : Audio Coding 3
Duration : 1h 29mn
Bit rate mode : Constant
Bit rate : 448 Kbps
Channel(s) : 6 channels
Channel positions : Front: L C R, Surround: L R, LFE
Sampling rate : 48.0 KHz
Stream size : 287 MiB (100%)

General
Complete name : C:\Users\KIKA\Downloads\фильмы\Doroga.na.Eldorado.2000.x264.WEB-DL.720p\Doroga.na.Eldorado.2000.x264.WEB-DL.720p.Юрий Живов.ac3
Format : AC-3
Format/Info : Audio Coding 3
File size : 287 MiB
Duration : 1h 29mn
Overall bit rate : 448 Kbps

Audio
Format : AC-3
Format/Info : Audio Coding 3
Duration : 1h 29mn
Bit rate mode : Constant
Bit rate : 448 Kbps
Channel(s) : 6 channels
Channel positions : Front: L C R, Surround: L R, LFE
Sampling rate : 48.0 KHz
Stream size : 287 MiB (100%)







Правила, инструкции, FAQ!!!
Торрент  Добавлен [25 фев 2013, 20:26] Скачать торрент Магнет ссылка
Скачать торрент
[ Размер 22.01 КБ / Просмотров 36 ]

Статус
Проверен 
 
Размер  4.19 ГБ
Приватный: Нет (DHT включён)
.torrent скачан  2
Как залить торрент? | Как скачать Torrent? | Ошибка в торренте? Качайте магнет  
загрузка...


     Отправить личное сообщение
   
Страница 1 из 1
Показать сообщения за:  Поле сортировки  
Начать новую тему Ответить на тему

   Похожие торренты   Автор   Ответы   Просмотры   Последнее сообщение 
В этой теме нет новых непрочитанных сообщений. Скачать торрент Подводная братва / Shark Tale (Бибо Бержерон / Bibo Bergeron, Вики Дженсон / Vicky Jenson, Роб Леттерман / Rob Letterman) [2004, Комедия, семейный, мультфильм, HDTVRip] Dub

в форуме Зарубежные мультфильмы, Размер: 747.47 МБ, Здоровье: 100%

Anonymous

0
26|9

115
2

30 сен 2013, 00:47

Anonymous Перейти к последнему сообщению

В этой теме нет новых непрочитанных сообщений. Скачать торрент Проверен Монстр в Париже 3Д / Un monstre a Paris 3D (Бибо Бержерон / Bibo Bergeron) [2011, Франция, мультфильм, фэнтези, комедия, приключения, музыка, Blu-ray (custom) 1080p] BD3D

в форуме 3D Мультфильмы, Размер: 34.01 ГБ, Здоровье: 100%

Anonymous

0
8|2

42
0

07 сен 2016, 17:56

Anonymous Перейти к последнему сообщению

В этой теме нет новых непрочитанных сообщений. Скачать торрент Проверен Монстр в Париже в 3Д / A Monster in Paris 3D (Бибо Бержерон / Bibo Bergeron) [2011, Мультфильм, Фэнтези, Комедия, Приключения, Мюзикл, BDrip, 1080p] OverUnder / Вертикальная стереопара

в форуме HD-Video в 3D, Размер: 8.54 ГБ, Здоровье: 100%

Anonymous

0
14|5

114
0

02 ноя 2014, 09:55

Anonymous Перейти к последнему сообщению

В этой теме нет новых непрочитанных сообщений. Скачать торрент Проверен Монстр в Париже в 3Д / A Monster in Paris / Un monstre a Paris 3D (Бибо Бержерон / Bibo Bergeron) [2011, мультфильм, фэнтези, комедия, приключения, BDremux, 1080p] BD3D

в форуме 3D Мультфильмы, Размер: 23.3 ГБ, Здоровье: 0%

Anonymous

0
0|0

57
0

07 сен 2016, 18:00

Anonymous Перейти к последнему сообщению

В этой теме нет новых непрочитанных сообщений. Скачать торрент Проверен Монстр в Париже в 3Д / A Monster in Paris / Un monstre a Paris 3D (Бибо Бержерон / Bibo Bergeron) [2011, мультфильм, фэнтези, комедия, приключения, музыка, Blu-Ray Disc, 1080p] BD3D

в форуме 3D Мультфильмы, Размер: 26.54 ГБ, Здоровье: 100%

Anonymous

0
2|1

52
0

07 сен 2016, 17:33

Anonymous Перейти к последнему сообщению



Сейчас этот форум просматривают: нет зарегистрированных пользователей и гости: 0


Вы не можете начинать темы
Вы не можете отвечать на сообщения
Вы не можете редактировать свои сообщения
Вы не можете удалять свои сообщения
Вы не можете добавлять вложения

Перейти:  
Ресурс не предоставляет электронные версии произведений, а занимается лишь коллекционированием и каталогизацией ссылок, присылаемых и публикуемых на форуме нашими читателями. Если вы являетесь правообладателем какого-либо представленного материала и не желаете чтобы ссылка на него находилась в нашем каталоге, свяжитесь с нами и мы незамедлительно удалим её. Файлы для обмена на трекере предоставлены пользователями сайта, и администрация не несёт ответственности за их содержание. Просьба не заливать файлы, защищенные авторскими правами, а также файлы нелегального содержания!
cron