На всех торрентах на трекере установлена скидка на скачивание в размере 100 процентов(а).
 Возможность скачивания торрента НЕ зависит от ограничений при низком ратио, низком аплоаде, требуемом ратио или требуемом аплоаде.


Начать новую тему Ответить на тему
Статистика раздачи
Размер: 1.43 ГБ | Добавлен: 11 июн 2018, 09:31 | Скачали: 0
Сидеров: 21  [1.97 КБ/сек]    Личеров: 6  [0 байт/сек]
Пред. тема | След. тема 

Автор
Сообщение

СообщениеДобавлено: 11 июн 2018, 09:31 

Ответить с цитатой 


Дом / The House

«If you can't beat the house, be... The House»


Страна: США
Жанр: комедия
Год выпуска: 2017
Продолжительность: 01:28:09
Перевод: Профессиональный (дублированный) iTunes
Субтитры: нет
Оригинальная аудиодорожка: нет
Режиссер: Эндрю Дж. Коэн / Andrew Jay Cohen
В ролях: Уилл Феррелл, Эми Полер, Джейсон Манцукас, Райан Симпкинс, Ник Кролл, Эллисон Толман, Роб Хюбель, Кристина Оффли, Джесси Эннис, Рори Сковел
Описание: Скотт и Кейт души не чают в своей дочери Алекс. Особенно они радовались, когда девушку приняли в университет её мечты. Но городской совет на деньги, обещанные родителям на обучение Алекс, решил построить общественный бассейн. Приняв решение быть хорошими родителями любой ценой, парочка поддается на уговоры соседа-игромана устроить в его доме нелегальное казино с рулеткой и кордебалетом.


Качество видео: HDRip-AVC / BDRip 1080p
Формат видео: MKV
Видео: MPEG-4 AVC, 954x398 (2.40:1), 23,976 fps, ~1898 kbps avg, 0.208 bit/pixel
Аудио: 48 kHz, AC3 Dolby Digital, 3/2 (L,C,R,l,r) + LFE ch, ~384 kbps avg
Код:
Код:
Код:
Complete name               : D:\Раздача\Дом (2017) HDRip-AVC_ivanes20031987.mkv
Format                      : Matroska
Format version              : Version 2
File size                   : 1.43 GiB
Duration                    : 1 h 28 min
Overall bit rate            : 2 328 kb/s
Movie name                  : Дом (2017) HDRip-AVC_ivanes20031987
Encoded date                : UTC 2018-06-06 14:31:44
Writing application         : mkvmerge v4.4.0 ('Die Wiederkehr') сборка от Jan  3 2011 21:40:45
Writing library             : libebml v1.0.0 + libmatroska v1.0.0
Cover                       : Yes
Attachments                 : cover.jpg
Video
ID                          : 1
Format                      : AVC
Format/Info                 : Advanced Video Codec
Format profile              : High@L4.1
Format settings, CABAC      : Yes
Format settings, RefFrames  : 14 frames
Codec ID                    : V_MPEG4/ISO/AVC
Duration                    : 1 h 28 min
Bit rate                    : 1 898 kb/s
Width                       : 954 pixels
Height                      : 398 pixels
Display aspect ratio        : 2.40:1
Frame rate mode             : Constant
Frame rate                  : 23.976 (24000/1001) FPS
Color space                 : YUV
Chroma subsampling          : 4:2:0
Bit depth                   : 8 bits
Scan type                   : Progressive
Bits/(Pixel*Frame)          : 0.208
Stream size                 : 1.17 GiB (82%)
Title                       : Rip by ivanes20031987
Writing library             : x264 core 155 r2901 7d0ff22
Encoding settings           : cabac=1 / ref=14 / deblock=1:-3:-3 / analyse=0x3:0x113 / me=umh / subme=10 / psy=1 / psy_rd=1.00:0.00 / mixed_ref=1 / me_range=32 / chroma_me=1 / trellis=2 / 8x8dct=1 / cqm=0 / deadzone=21,11 / fast_pskip=0 / chroma_qp_offset=-2 / threads=12 / lookahead_threads=3 / sliced_threads=0 / nr=0 / decimate=0 / interlaced=0 / bluray_compat=0 / constrained_intra=0 / bframes=14 / b_pyramid=2 / b_adapt=2 / b_bias=0 / direct=1 / weightb=1 / open_gop=0 / weightp=2 / keyint=240 / keyint_min=23 / scenecut=40 / intra_refresh=0 / rc_lookahead=60 / rc=crf / mbtree=0 / crf=16.7 / qcomp=0.60 / qpmin=0 / qpmax=69 / qpstep=4 / vbv_maxrate=50000 / vbv_bufsize=62500 / crf_max=0.0 / nal_hrd=none / filler=0 / ip_ratio=1.40 / pb_ratio=1.30 / aq=1:1.00
Default                     : Yes
Forced                      : No
Audio
ID                          : 2
Format                      : AC-3
Format/Info                 : Audio Coding 3
Format settings, Endianness : Big
Codec ID                    : A_AC3
Duration                    : 1 h 28 min
Bit rate mode               : Constant
Bit rate                    : 384 kb/s
Channel(s)                  : 6 channels
Channel positions           : Front: L C R, Side: L R, LFE
Sampling rate               : 48.0 kHz
Frame rate                  : 31.250 FPS (1536 SPF)
Bit depth                   : 16 bits
Compression mode            : Lossy
Stream size                 : 242 MiB (16%)
Title                       : iTunes
Language                    : Russian
Service kind                : Complete Main
Default                     : Yes
Forced                      : No

Код:
Код:
x264 [info]: frame I:1524  Avg QP:15.69  size: 65112
x264 [info]: frame P:27976 Avg QP:17.65  size: 22088
x264 [info]: frame B:97326 Avg QP:19.63  size:  5826
x264 [info]: consecutive B-frames:  2.7%  2.6%  7.8% 23.4% 19.9% 34.4%  3.7%  2.4%  0.7%  1.0%  0.2%  0.4%  0.4%  0.1%  0.2%
x264 [info]: mb I  I16..4:  3.6% 74.2% 22.2%
x264 [info]: mb P  I16..4:  0.6%  9.8%  1.5%  P16..4: 33.9% 30.1% 18.6%  0.0%  0.0%    skip: 5.5%
x264 [info]: mb B  I16..4:  0.0%  0.6%  0.1%  B16..8: 35.5% 14.2%  4.9%  direct: 5.1%  skip:39.6%  L0:40.9% L1:42.1% BI:17.1%
x264 [info]: 8x8 transform intra:79.3% inter:53.6%
x264 [info]: coded y,uvDC,uvAC intra: 93.4% 90.1% 76.9% inter: 24.2% 19.0% 9.8%
x264 [info]: i16 v,h,dc,p: 42% 12%  7% 38%
x264 [info]: i8 v,h,dc,ddl,ddr,vr,hd,vl,hu: 13% 10%  9%  9% 12% 12% 11% 12% 12%
x264 [info]: i4 v,h,dc,ddl,ddr,vr,hd,vl,hu: 12%  9%  3%  9% 15% 15% 13% 12% 12%
x264 [info]: i8c dc,h,v,p: 44% 21% 20% 14%
x264 [info]: Weighted P-Frames: Y:3.1% UV:2.0%
x264 [info]: ref P L0: 51.1% 12.1% 14.4%  5.4%  4.4%  3.0%  2.8%  1.4%  1.3%  0.9%  0.9%  0.7%  0.7%  0.7%  0.0%  0.0%
x264 [info]: ref B L0: 75.2% 10.3%  4.9%  2.7%  1.8%  1.5%  1.2%  0.8%  0.6%  0.5%  0.3%  0.2%  0.1%
x264 [info]: ref B L1: 94.9%  5.1%
x264 [info]: kb/s:1942.17

Правила, инструкции, FAQ!!!
Торрент  Добавлен [11 июн 2018, 09:31] Скачать торрент Магнет ссылка
Скачать торрент
[ Размер 14.79 КБ / Просмотров 12 ]

Статус
Проверен 
 
Размер  1.43 ГБ
Приватный: Нет (DHT включён)
.torrent скачан  0
Как залить торрент? | Как скачать Torrent? | Ошибка в торренте? Качайте магнет  


     Отправить личное сообщение
   
Страница 1 из 1
Показать сообщения за:  Поле сортировки  
Начать новую тему Ответить на тему

   Похожие торренты   Автор   Ответы   Просмотры   Последнее сообщение 
В этой теме нет новых непрочитанных сообщений. Скачать торрент Проверен Дом / The House (Эндрю Дж. Коэн / Andrew Jay Cohen) [2017, США, комедия, BDRip] Dub (iTunes)

в форуме Фильмы 2016-2017, Размер: 1.46 ГБ, Здоровье: 100%

Anonymous

0
35|11

11
1

11 июн 2018, 09:32

Anonymous Перейти к последнему сообщению

В этой теме нет новых непрочитанных сообщений. Скачать торрент Проверен Секс-Трип / The Sex Trip (Энтони Дж. Коэн / Anthony G. Cohen) [2017, США, фэнтези, комедия, WEB-DLRip-AVC] Dub

в форуме Фильмы 2016-2017, Размер: 1.46 ГБ, Здоровье: 100%

Anonymous

0
1|0

3
0

03 фев 2018, 20:22

Anonymous Перейти к последнему сообщению

В этой теме нет новых непрочитанных сообщений. Скачать торрент Проверен Секс-Трип / The Sex Trip (Энтони Дж. Коэн / Anthony G. Cohen) [2017, США, фэнтези, комедия, WEB-DLRip] Dub (iTunes)

в форуме Фильмы 2016-2017, Размер: 1.45 ГБ, Здоровье: 100%

Anonymous

0
35|11

6
0

03 фев 2018, 20:42

Anonymous Перейти к последнему сообщению

В этой теме нет новых непрочитанных сообщений. Скачать торрент Проверен Секс-Трип / The Sex Trip (Энтони Дж. Коэн / Anthony G. Cohen) [2017, США, фэнтези, комедия, WEB-DLRip] Dub (iTunes)

в форуме Фильмы 2016-2017, Размер: 741.6 МБ, Здоровье: 0%

Anonymous

0
0|0

3
0

03 фев 2018, 19:43

Anonymous Перейти к последнему сообщению

В этой теме нет новых непрочитанных сообщений. Скачать торрент Проверен [iPad] Два мира / Les deux mondes (Даниэль Коэн / Daniel Cohen ) [2007, Франция, Фэнтези, комедия, HDRip, SD (576p)] DUB + Original

в форуме Фильмы для iPod, iPhone, iPad, Размер: 1.77 ГБ, Здоровье: 100%

Гость

0
8|4

60
1

18 май 2015, 10:49

Гость Перейти к последнему сообщению



Сейчас этот форум просматривают: нет зарегистрированных пользователей и гости: 0


Вы не можете начинать темы
Вы не можете отвечать на сообщения
Вы не можете редактировать свои сообщения
Вы не можете удалять свои сообщения
Вы не можете добавлять вложения

Перейти:  
Ресурс не предоставляет электронные версии произведений, а занимается лишь коллекционированием и каталогизацией ссылок, присылаемых и публикуемых на форуме нашими читателями. Если вы являетесь правообладателем какого-либо представленного материала и не желаете чтобы ссылка на него находилась в нашем каталоге, свяжитесь с нами и мы незамедлительно удалим её. Файлы для обмена на трекере предоставлены пользователями сайта, и администрация не несёт ответственности за их содержание. Просьба не заливать файлы, защищенные авторскими правами, а также файлы нелегального содержания!
cron