На всех торрентах на трекере установлена скидка на скачивание в размере 100 процентов(а).
 Возможность скачивания торрента НЕ зависит от ограничений при низком ратио, низком аплоаде, требуемом ратио или требуемом аплоаде.


Начать новую тему Ответить на тему
Статистика раздачи
Размер: 2.74 ГБ | Добавлен: 31 авг 2013, 22:31 | Скачали: 0
Сидеров: 0  [0 байт/сек]    Личеров: 1  [0 байт/сек]
Пред. тема | След. тема 

Автор
Сообщение

СообщениеДобавлено: 31 авг 2013, 22:31 

Ответить с цитатой 

Долина папоротников: Последний тропический лес / FernGully: The Last Rainforest (1992) BDRip [H.264]

«'Do you believe in humans?'»

Год выпуска: 1992
Страна: Австралия, США
Жанр: Мультфильм, фэнтези, приключения, семейный

Режиссер: Билл Кройер
Актеры: Тим Карри (Hexxus, озвучка), Саманта Мэтис (Crysta, озвучка), Кристиан Слэйтер (Pips, озвучка), Джонатан Уорд (Zak Young, озвучка), Робин Уильямс (Batty Koda, озвучка), Грейс Забриски (Magi Lune, озвучка), Джеффри Блейк (Ralph, озвучка), Роберт Пасторелли (Tony, озвучка), Чич Марин (Stump, озвучка), Томми Чонг (Root, озвучка), Тоун Лок (Goanna, озвучка), Таунсенд Коулмэн (Knotty, озвучка)

Описание фильма: Хексус - это злой дух. Его задача - причинять боль и страдания. Он появился из раскаленного ядра Земли и принялся уничтожать сказочно красивый тропический лес, населенный забавными мистическими существами. Только объединившись и обратив свои мольбы к магическим силам природы, жителям леса удалось заточить Хексуса в одно из деревьев. Но скоро зверушки опять сталкиваются со смертельной опасностью, на сей раз исходящей со стороны людей, занимающихся вырубкой лесов. Своими мощными бульдозерами люди сносят подкорень вековые деревья, не подозревая о том, что в одном из них своего часа дожидается мощнейшая безжалостная сила, несущая смерть всему живому. Но наши маленькие герои проявляют чудеса смекалки и с юмором расправляются со всеми своими обидчиками.



Продолжительность: 01:15:52
Перевод: Двуголосый закадровый, авторский
Субтитры: Отсутствуют

Качество видео: BDRip
Видеокодек: MPEG-4 AVC/H.264
Битрейт видео: ~3000 Кбит/с
Размер кадра: 1024x552
Аудио 1: Русский: 48 kHz, AC3, 6 ch, 384 Кбит/с - Двухголосый
Аудио 2: Русский: 48 kHz, АС3, 6 ch, 448 Кбит/с - Двухголосый (Гланц и Королева)
Аудио 3: Русский: 48 kHz,АС3, 6 ch, 448 Кбит/с - (А.Михалёв)
Аудио 4: Русский: 48 kHz, АС3, 6 ch, 448 Кбит/с - (А.Гаврилов)
Аудио 5: Англ-ий: 48 kHz, AC3, 6 ch, 448 Кбит/с
General
Unique ID : 230743057196551892249990782514221123925 (0xAD977F0F939A184DACF187496E958955)
Complete name : D:\Торрент\Dolina.paporotnikov.Posledniy.tropicheskiy.les.1992.(H.264).BDRip.mkv
Format : Matroska
Format version : Version 1
File size : 2.74 GiB
Duration : 1h 15mn
Overall bit rate : 5 179 Kbps
Encoded date : UTC 2012-04-22 10:29:30
Writing application : mkvmerge v2.1.0 ('Another Place To Fall') built on Aug 19 2007 13:40:07
Writing library : libebml v0.7.7 + libmatroska v0.8.1

Video
ID : 1
Format : AVC
Format/Info : Advanced Video Codec
Format profile :
Format settings, CABAC : Yes
Format settings, ReFrames : 6 frames
Codec ID : V_MPEG4/ISO/AVC
Duration : 1h 15mn
Bit rate : 3 000 Kbps
Width : 1 024 pixels
Height : 552 pixels
Display aspect ratio : 1.85:1
Frame rate mode : Constant
Frame rate : 23.976 fps
Color space : YUV
Chroma subsampling : 4:2:0
Bit depth : 8 bits
Scan type : Progressive
Bits/(Pixel*Frame) : 0.221
Stream size : 1.54 GiB (56%)
Writing library : x264 core 115 r1937 aa21558
Encoding settings : cabac=1 / ref=6 / deblock=1:-1:-1 / analyse=0x3:0x113 / me=hex / subme=6 / psy=1 / psy_rd=1.00:0.10 / mixed_ref=0 / me_range=16 / chroma_me=1 / trellis=1 / 8x8dct=1 / cqm=0 / deadzone=21,11 / fast_pskip=1 / chroma_qp_offset=-3 / threads=6 / sliced_threads=0 / nr=0 / decimate=1 / interlaced=0 / bluray_compat=0 / constrained_intra=0 / bframes=6 / b_pyramid=2 / b_adapt=2 / b_bias=0 / direct=3 / weightb=1 / open_gop=0 / weightp=0 / keyint=250 / keyint_min=23 / scenecut=40 / intra_refresh=0 / rc_lookahead=30 / rc=2pass / mbtree=1 / bitrate=3000 / ratetol=1.0 / qcomp=0.60 / qpmin=15 / qpmax=47 / qpstep=3 / cplxblur=20.0 / qblur=0.5 / ip_ratio=1.40 / aq=1:1.10
Language : English
Default : Yes
Forced : No

Audio #1
ID : 2
Format : AC-3
Format/Info : Audio Coding 3
Mode extension : CM (complete main)
Format settings, Endianness : Big
Codec ID : A_AC3
Duration : 1h 15mn
Bit rate mode : Constant
Bit rate : 384 Kbps
Channel(s) : 6 channels
Channel positions : Front: L C R, Side: L R, LFE
Sampling rate : 48.0 KHz
Bit depth : 16 bits
Compression mode : Lossy
Stream size : 208 MiB (7%)
Default : Yes
Forced : No

Audio #2
ID : 3
Format : AC-3
Format/Info : Audio Coding 3
Mode extension : CM (complete main)
Format settings, Endianness : Big
Codec ID : A_AC3
Duration : 1h 15mn
Bit rate mode : Constant
Bit rate : 448 Kbps
Channel(s) : 6 channels
Channel positions : Front: L C R, Side: L R, LFE
Sampling rate : 48.0 KHz
Bit depth : 16 bits
Compression mode : Lossy
Stream size : 243 MiB (9%)
Default : No
Forced : No

Audio #3
ID : 4
Format : AC-3
Format/Info : Audio Coding 3
Mode extension : CM (complete main)
Format settings, Endianness : Big
Codec ID : A_AC3
Duration : 1h 15mn
Bit rate mode : Constant
Bit rate : 448 Kbps
Channel(s) : 6 channels
Channel positions : Front: L C R, Side: L R, LFE
Sampling rate : 48.0 KHz
Bit depth : 16 bits
Compression mode : Lossy
Stream size : 243 MiB (9%)
Default : No
Forced : No

Audio #4
ID : 5
Format : AC-3
Format/Info : Audio Coding 3
Mode extension : CM (complete main)
Format settings, Endianness : Big
Codec ID : A_AC3
Duration : 1h 15mn
Bit rate mode : Constant
Bit rate : 448 Kbps
Channel(s) : 6 channels
Channel positions : Front: L C R, Side: L R, LFE
Sampling rate : 48.0 KHz
Bit depth : 16 bits
Compression mode : Lossy
Stream size : 243 MiB (9%)
Default : No
Forced : No

Audio #5
ID : 6
Format : AC-3
Format/Info : Audio Coding 3
Mode extension : CM (complete main)
Format settings, Endianness : Big
Codec ID : A_AC3
Duration : 1h 15mn
Bit rate mode : Constant
Bit rate : 448 Kbps
Channel(s) : 6 channels
Channel positions : Front: L C R, Side: L R, LFE
Sampling rate : 48.0 KHz
Bit depth : 16 bits
Compression mode : Lossy
Stream size : 243 MiB (9%)
Default : No
Forced : No

Скриншоты:

загрузка...
Правила, инструкции, FAQ!!!
Торрент  Добавлен [31 авг 2013, 22:31] Скачать торрент Магнет ссылка
Скачать торрент
[ Размер 14.57 КБ / Просмотров 4 ]

Статус  
 
Размер  2.74 ГБ
Приватный: Нет (DHT включён)
.torrent скачан  0
Как залить торрент? | Как скачать Torrent? | Ошибка в торренте? Качайте магнет  


     Отправить личное сообщение
   
Страница 1 из 1
Показать сообщения за:  Поле сортировки  
Начать новую тему Ответить на тему

   Похожие торренты   Автор   Ответы   Просмотры   Последнее сообщение 
В этой теме нет новых непрочитанных сообщений. Скачать торрент Проверен [iPad] Долина папоротников: Последний тропический лес / FernGully: The Last Rainforest (Билл Кройер / Bill Kroyer) [1992, мультфильм, фэнтези, приключения, семейный, BDRip]

в форуме Фильмы для iPod, iPhone, iPad, Размер: 1.67 ГБ, Здоровье: 0%

Anonymous

0
0|0

5
0

24 дек 2017, 23:03

Anonymous Перейти к последнему сообщению

В этой теме нет новых непрочитанных сообщений. Скачать торрент Проверен Эдгар Уоллес - Долина привидений [1992, PDF/DjVu, RUS]

в форуме Детективы и Боевики, Размер: 22.11 МБ, Здоровье: 72%

Anonymous

0
8|11

21
1

08 сен 2016, 21:17

Anonymous Перейти к последнему сообщению

В этой теме нет новых непрочитанных сообщений. Скачать торрент Дьен Бьен Фу / Долина Глиняных Кувшинов / Diên Biên Phú (1992) DVDRip от FilmRus | A

в форуме Военные, Размер: 1.45 ГБ, Здоровье: 100%

Anonymous

0
4|0

168
3

14 июл 2013, 19:37

Anonymous Перейти к последнему сообщению

В этой теме нет новых непрочитанных сообщений. Скачать торрент Проверен Тёмная долина / Das finstere Tal (2014) BDRip 720p | Лицензия

в форуме 720p | 1080p, Размер: 5.35 ГБ, Здоровье: 100%

Anonymous

0
644|34

88
4734

20 сен 2014, 23:59

Anonymous Перейти к последнему сообщению

В этой теме нет новых непрочитанных сообщений. Скачать торрент Проверен Тёмная долина / Das finstere Tal (2014) BDRip 1080p | P | Лицензия

в форуме 720p | 1080p, Размер: 7.75 ГБ, Здоровье: 100%

Anonymous

0
144|11

73
992

20 сен 2014, 23:57

Anonymous Перейти к последнему сообщению



Сейчас этот форум просматривают: нет зарегистрированных пользователей и гости: 0


Вы не можете начинать темы
Вы не можете отвечать на сообщения
Вы не можете редактировать свои сообщения
Вы не можете удалять свои сообщения
Вы не можете добавлять вложения

Перейти:  
Ресурс не предоставляет электронные версии произведений, а занимается лишь коллекционированием и каталогизацией ссылок, присылаемых и публикуемых на форуме нашими читателями. Если вы являетесь правообладателем какого-либо представленного материала и не желаете чтобы ссылка на него находилась в нашем каталоге, свяжитесь с нами и мы незамедлительно удалим её. Файлы для обмена на трекере предоставлены пользователями сайта, и администрация не несёт ответственности за их содержание. Просьба не заливать файлы, защищенные авторскими правами, а также файлы нелегального содержания!
cron