На всех торрентах на трекере установлена скидка на скачивание в размере 100 процентов(а).
 Возможность скачивания торрента НЕ зависит от ограничений при низком ратио, низком аплоаде, требуемом ратио или требуемом аплоаде.


Начать новую тему Ответить на тему
Статистика раздачи
Размер: 3.16 ГБ | Добавлен: 20 янв 2015, 23:45 | Скачали: 5
Сидеров: 74  [0 байт/сек]    Личеров: 5  [0 байт/сек]
Пред. тема | След. тема 

Автор
Сообщение

СообщениеДобавлено: 20 янв 2015, 23:45 

Ответить с цитатой 

Производство: США
Жанр: Фантастика, Боевик, Триллер

Режиссер: Брайан А Миллер
Продюсер: Рэндолл Эмметт, Джордж Фурла, Адам Голдворм,
Актеры: Томас Джейн, Брюс Уиллис, Эмбир Чилдерс, Брайан Гринберг, Джонатон Шек, Шарлотта Кирк, Бретт Гранстафф, Райан О'Нан, David Gordon, Колин Эглсфилд

Описание фильма:
Действие происходит в относительно недалеком будущем, когда для богачей создан специальный город-курорт, основные обитатели которых и обслуга - андроиды. Туристы за соответствующую цену могут осуществить здесь самые безумные свои фантазии, а андроиды, пострадавшие от рук людей, направляются на перезагрузку памяти. Но однажды случается сбой, и женщина-андроид обретает память о всех кошмарах, которым богатые извращенцы подвергали ее и остальных искусственных людей. И она решает отомстить...

Перевод: Двуголосый закадровый, любительский
Субтитры: Вшитые отключаемые
Язык субтитров: Английские



Дата мировой премьеры: 1 января 2015
Дата российской премьеры: 16 апреля 2015, «Наше Кино»

Продолжительность: 01:36:21
Качество видео: WEB-DL 720p-LQ

Видеокодек: MPEG-4 AVC/H.264
Битрейт видео: ~4027 kb/s
Размер кадра: 1280x528
Аудио#1: 48,0 kHz, AC3, 2/0 192 kb/s (Русский)
Аудио#2:48,0 kHz, АC3, 5/1 384 kb/s (Английский)
Сэмпл: Скачать
Общее
Уникальный идентификатор : 235887736721738579845630652456183548957 (0xB1765358556309EB8F8D01F8DE804C1D)
Полное имя : Vice.2015.L2.WEB-DL.720p.nnm-club.mkv
Формат : Matroska
Версия формата : Version 4 / Version 2
Размер файла : 3,16 Гбайт
Продолжительность : 1 ч. 36 м.
Общий поток : 4696 Кбит/сек
Название фильма : RARBG.COM - Time.Lapse.2014.720p.WEB-DL.DD5.1.H264-RARBG
Дата кодирования : UTC 2015-01-20 07:48:46
Программа кодирования : mkvmerge v6.9.1 ('Blue Panther') 64bit built on Apr 18 2014 18:23:38
Библиотека кодирования : libebml v1.3.0 + libmatroska v1.4.1

Видео
Идентификатор : 1
Формат : AVC
Формат/Информация : Advanced Video Codec
Профиль формата :
Параметр CABAC формата : Нет
Параметр ReFrames формата : 2 кадра
Идентификатор кодека : V_MPEG4/ISO/AVC
Продолжительность : 1 ч. 36 м.
Битрейт : 4027 Кбит/сек
Ширина : 1280 пикселей
Высота : 528 пикселей
Соотношение сторон : 2,40:1
Режим частоты кадров : Постоянный
Частота кадров : 23,976 кадра/сек
Цветовое пространство : YUV
Субдискретизация насыщенности : 4:2:0
Битовая глубина : 8 бит
Тип развёртки : Прогрессивная
Бит/(Пиксели*Кадры) : 0.249
Размер потока : 2,71 Гбайт (86%)
Язык : English
Default : Да
Forced : Нет
Основные цвета : BT.709
Характеристики трансфера : BT.709
Коэффициенты матрицы : BT.709

Аудио #1
Идентификатор : 2
Формат : AC-3
Формат/Информация : Audio Coding 3
Расширение режима : CM (complete main)
Параметр Endianness формата : Big
Идентификатор кодека : A_AC3
Продолжительность : 1 ч. 36 м.
Вид битрейта : Постоянный
Битрейт : 192 Кбит/сек
Каналы : 2 канала
Расположение каналов : Front: L R
Частота : 48,0 КГц
Битовая глубина : 16 бит
Метод сжатия : С потерями
Размер потока : 132 Мбайт (4%)
Язык : Russian
Default : Да
Forced : Нет

Аудио #2
Идентификатор : 3
Формат : AC-3
Формат/Информация : Audio Coding 3
Расширение режима : CM (complete main)
Параметр Endianness формата : Big
Идентификатор кодека : A_AC3
Продолжительность : 1 ч. 36 м.
Вид битрейта : Постоянный
Битрейт : 384 Кбит/сек
Каналы : 6 каналов
Расположение каналов : Front: L C R, Side: L R, LFE
Частота : 48,0 КГц
Битовая глубина : 16 бит
Метод сжатия : С потерями
Размер потока : 265 Мбайт (8%)
Язык : English
Default : Нет
Forced : Нет

Текст
Идентификатор : 4
Формат : UTF-8
Идентификатор кодека : S_TEXT/UTF8
Идентификатор кодека/Информация : UTF-8 Plain Text
Язык : English
Default : Нет
Forced : Нет

Меню
00:00:00.000 : en:Chapter 1
00:05:18.000 : en:Chapter 2
00:14:50.000 : en:Chapter 3
00:24:37.000 : en:Chapter 4
00:34:48.000 : en:Chapter 5
00:45:39.000 : en:Chapter 6
00:56:43.000 : en:Chapter 7
01:06:33.000 : en:Chapter 8
01:15:03.000 : en:Chapter 9
01:26:05.000 : en:Chapter 10
01:31:51.000 : en:Chapter 11
Скриншоты:

загрузка...
Правила, инструкции, FAQ!!!
Торрент  Добавлен [20 янв 2015, 23:45]

Статус
Проверен 
 
Размер  3.16 ГБ
Приватный: Нет (DHT включён)
.torrent скачан  5
Как залить торрент? | Как скачать Torrent? | Как смотреть и слушать онлайн?  


     Отправить личное сообщение
   
Страница 1 из 1
Показать сообщения за:  Поле сортировки  
Начать новую тему Ответить на тему

   Похожие торренты   Автор   Ответы   Просмотры   Последнее сообщение 
В этой теме нет новых непрочитанных сообщений. Добро пожаловать в рай / Vice (2015) WEB-DLRip | L2

в форуме Новинки кино, Размер: 1.31 ГБ, Здоровье: 0%

Гость

0
20|2417

1585
5

20 янв 2015, 17:49

Гость Перейти к последнему сообщению

В этой теме нет новых непрочитанных сообщений. Скачать торрент Проверен Добро пожаловать в рай / Vice (2014) BDRip [576p] iPad

в форуме Фильмы для iPod, iPhone, iPad, Размер: 1.7 ГБ, Здоровье: 100%

Гость

0
3|3

644
2

13 сен 2015, 01:30

Гость Перейти к последнему сообщению

В этой теме нет новых непрочитанных сообщений. Скачать торрент Проверен Добро пожаловать в Лэйквью / Lakeview Terrace (2008) BDRip 720p | P | Лицензия

в форуме 720p | 1080p, Размер: 4.23 ГБ, Здоровье: 100%

Гость

0
36|7

191
27

04 авг 2016, 20:36

Гость Перейти к последнему сообщению

В этой теме нет новых непрочитанных сообщений. Скачать торрент Проверен Добро пожаловать, или Посторонним вход воспрещён (Элем Климов) [1964, СССР, комедия, семейный, BDRip 720p]

в форуме Наше кино (HD Video), Размер: 4.77 ГБ, Здоровье: 100%

Anonymous

0
74|24

127
0

12 апр 2015, 10:56

Anonymous Перейти к последнему сообщению

В этой теме нет новых непрочитанных сообщений. Скачать торрент Проверен Такимото Тацухико - Welcome to the NHK / Добро пожаловать в NHK [Adrenalin, 2015, Социальная сатира, комедия, драма, 128 kbps]

в форуме Аудиокниги (AAC, ALAC), Размер: 360.59 МБ, Здоровье: 0%

Anonymous

0
0|0

23
0

28 авг 2016, 16:21

Anonymous Перейти к последнему сообщению



Сейчас этот форум просматривают: нет зарегистрированных пользователей и гости: 1


Вы не можете начинать темы
Вы не можете отвечать на сообщения
Вы не можете редактировать свои сообщения
Вы не можете удалять свои сообщения
Вы не можете добавлять вложения

Перейти:  

!ВНИМАНИЕ!
 Ресурс не предоставляет электронные версии произведений, а занимается лишь коллекционированием и каталогизацией ссылок, присылаемых и публикуемых на форуме нашими читателями. Если вы являетесь правообладателем какого-либо представленного материала и не желаете чтобы ссылка на него находилась в нашем каталоге, свяжитесь с нами и мы незамедлительно удалим её. Файлы для обмена на трекере предоставлены пользователями сайта, и администрация не несёт ответственности за их содержание. Просьба не заливать файлы, защищенные авторскими правами, а также файлы нелегального содержания!