На всех торрентах на трекере установлена скидка на скачивание в размере 100 процентов(а).
 Возможность скачивания торрента НЕ зависит от ограничений при низком ратио, низком аплоаде, требуемом ратио или требуемом аплоаде.


Начать новую тему Ответить на тему
Статистика раздачи
Размер: 389.3 МБ | Добавлен: 12 май 2015, 00:11 | Скачали: 0
Сидеров: 7  [0 байт/сек]    Личеров: 1  [0 байт/сек]
Пред. тема | След. тема 

Автор
Сообщение

СообщениеДобавлено: 12 май 2015, 00:11 

Ответить с цитатой 

Добро пожаловать, или посторонним вход воспрещен

Год выпуска: 1964
Страна: СССР
Жанр: Комедия
Продолжительность: 70 мин
Перевод: Не требуется

Режиссер: Элем Климов

В ролях: Евгений Евстигнеев, Арина Алейникова, Илья Рутберг, Лидия Смирнова, Алексей Смирнов, Виктор Косых, Юра Бондаренко, Борис Демб, Сережа Кокорев, Игорь Крюков, Саша Машовец, Таня Прохорова, Люда Смеян, Слава Царев.

Описание: Дети и взрослые, объединяются в борьбе против директора пионерского лагеря Дынина, очковтирателя, карьериста и лизоблюда, выгнавшего из лагеря нарушителя Иночкина.

Доп. информация: Не забываем говорить спасибо!

Качество: DVDRip
Формат: MP4
Видео кодек: H.264
Битрейт: 640 kbps
Видео: 480х368
Аудио: ААС 128 kbps
Video
Format : AVC
Format/Info : Advanced Video Codec
Format profile : Baseline@L3.0
Format settings, CABAC : No
Format settings, ReFrames : 2 frames
Codec ID : avc1
Codec ID/Info : Advanced Video Coding
Duration : 1h 10mn
Bit rate mode : Variable
Bit rate : 644 Kbps
Nominal bit rate : 640 Kbps
Width : 480 pixels
Height : 368 pixels
Display aspect ratio : 4/3
Frame rate mode : Variable
Frame rate : 25.000 fps
Minimum frame rate : 12.500 fps
Maximum frame rate : 25.000 fps
Resolution : 24 bits
Colorimetry : 4:2:0
Scan type : Progressive
Bits/(Pixel*Frame) : 0.146
Stream size : 324 MiB (83%)
Writing library : x264 core 65
Encoded date : UTC 2009-06-20 10:30:37
Tagged date : UTC 2009-06-20 11:13:17

Audio
Format : AAC
Format/Info : Advanced Audio Codec
Format version : Version 4
Format profile : LC
Format settings, SBR : No
Codec ID : 40
Duration : 1h 10mn
Bit rate mode : Variable
Bit rate : 128 Kbps
Maximum bit rate : 158 Kbps
Channel(s) : 2 channels
Channel positions : L R
Sampling rate : 48.0 KHz
Resolution : 16 bits
Stream size : 64.3 MiB (17%)
Encoded date : UTC 2009-06-20 10:30:37
Tagged date : UTC 2009-06-20 11:13:11
Правила, инструкции, FAQ!!!
Торрент  Добавлен [12 май 2015, 00:11] Скачать торрент Магнет ссылка
Скачать торрент
[ Размер 31 КБ / Просмотров 12 ]

Статус
Проверен 
 
Размер  389.3 МБ
Приватный: Нет (DHT включён)
.torrent скачан  0
Как залить торрент? | Как скачать Torrent? | Ошибка в торренте? Качайте магнет  
загрузка...


     Отправить личное сообщение
   
Страница 1 из 1
Показать сообщения за:  Поле сортировки  
Начать новую тему Ответить на тему

   Похожие торренты   Автор   Ответы   Просмотры   Последнее сообщение 
В этой теме нет новых непрочитанных сообщений. Скачать торрент Проверен Добро пожаловать, или Посторонним вход воспрещён (Элем Климов) [1964, СССР, комедия, BDRip 1080p]

в форуме Наше кино (HD Video), Размер: 9.91 ГБ, Здоровье: 100%

Anonymous

0
95|30

168
6

12 апр 2015, 15:05

Anonymous Перейти к последнему сообщению

В этой теме нет новых непрочитанных сообщений. Скачать торрент Проверен Добро пожаловать, или Посторонним вход воспрещён (Элем Климов) [1964, СССР, комедия, семейный, BDRip 720p]

в форуме Наше кино (HD Video), Размер: 4.77 ГБ, Здоровье: 100%

Anonymous

0
75|24

157
0

12 апр 2015, 10:56

Anonymous Перейти к последнему сообщению

В этой теме нет новых непрочитанных сообщений. Скачать торрент Проверен Добро пожаловать, или Посторонним вход воспрещен (Элем Климов) [1964, СССР, комедия, семейный, Blu-ray Disc 1080p]

в форуме Наше кино (HD Video), Размер: 19.38 ГБ, Здоровье: 100%

Anonymous

0
36|12

106
2

12 апр 2015, 15:05

Anonymous Перейти к последнему сообщению

В этой теме нет новых непрочитанных сообщений. Скачать торрент Проверен [iPhone] ИДИ И СМОТРИ / COME AND SEE (Элем Климов) [1985, Военная драма, DVDRip, 480x368]ENG+sub

в форуме Фильмы для iPod, iPhone, iPad, Размер: 1.18 ГБ, Здоровье: 100%

Гость

0
20|6

67
0

11 май 2015, 01:31

Гость Перейти к последнему сообщению

В этой теме нет новых непрочитанных сообщений. Скачать торрент Проверен Иди и смотри (Элем Климов) [1985 г., Драма, DVDRip]

в форуме Кино СССР, Размер: 1.46 ГБ, Здоровье: 100%

Anonymous

0
93|30

91
2

21 окт 2014, 20:58

Anonymous Перейти к последнему сообщению



Сейчас этот форум просматривают: нет зарегистрированных пользователей и гости: 1


Вы не можете начинать темы
Вы не можете отвечать на сообщения
Вы не можете редактировать свои сообщения
Вы не можете удалять свои сообщения
Вы не можете добавлять вложения

Перейти:  
Ресурс не предоставляет электронные версии произведений, а занимается лишь коллекционированием и каталогизацией ссылок, присылаемых и публикуемых на форуме нашими читателями. Если вы являетесь правообладателем какого-либо представленного материала и не желаете чтобы ссылка на него находилась в нашем каталоге, свяжитесь с нами и мы незамедлительно удалим её. Файлы для обмена на трекере предоставлены пользователями сайта, и администрация не несёт ответственности за их содержание. Просьба не заливать файлы, защищенные авторскими правами, а также файлы нелегального содержания!
cron