На всех торрентах на трекере установлена скидка на скачивание в размере 100 процентов(а).
 Возможность скачивания торрента НЕ зависит от ограничений при низком ратио, низком аплоаде, требуемом ратио или требуемом аплоаде.


Начать новую тему Ответить на тему
Статистика раздачи
Размер: 6.52 ГБ | Добавлен: 17 апр 2016, 22:06 | Скачали: 21
Сидеров: 208  [0 байт/сек]    Личеров: 15  [0 байт/сек]
Пред. тема | След. тема 

Автор
Сообщение

СообщениеДобавлено: 17 апр 2016, 22:06 

Ответить с цитатой 

Русское название: Для чувств. Захватывающее путешествие в мир природы и звука
Оригинальное название: Forsenses - A Fascinating Journey into Nature & Sound
Год выпуска: 2009
Жанр: Документальный, релаксация, флора, фауна
Выпущено: Германия
Режиссер: Филипп ван Капхир, Иво Моринг
Перевод: Не требуется - Музыкальное сопровождение

Сюжет фильма:
Великолепный документальный фильм с шикарным звуком: первый выпуск серии blu::elements с полным использованием оптических и акустических возможностей High Definition. Над фильмом и звуком проделана громадная работа режиссера и звукооператора. Название говорит само за себя и обеспечивает то, что обещает: невероятно увлекательное путешествие, которое зритель проделает с удовольствием. Впечатляющие образы природы находятся в гармонии с разнообразным и красивым звуком. Будь то DVD или Blu-Ray, "forsenses" - увлекательное путешествие в природе, которое заслуженно предлагает нам отдохнуть от повседневной жизни...
Качество: BDRip 1080p
Формат: AVC (библиотека кодирования x.264)
Контейнер (Расширение): MKV
Видео: 1916x1074, 13860 Кбит/сек, 29,970 кадр/сек, 0,225 Бит/[Пиксели*Кадры]
Аудио №1: английский / AC3 / 5.1 / 48 kHz / 640 kbps /
Аудио №2: английский / DTS / 5.1 / 48 kHz / 1510 kbps /
Навигация по главам(Чаптеры): есть
Продолжительность: 00:57:06

Автор рипа: Сообщество:



Format : Matroska
Format version : Version 2
File size : 6.52 GiB
Duration : 57mn 6s
Overall bit rate : 16.3 Mbps
Movie name : Dlja chuvstv.(2009).BDRip.1080p.[denis100]
Encoded date : UTC 2016-04-15 06:00:00
Writing application : mkvmerge v5.8.0 ('No Sleep / Pillow') built on Sep 2 2012 15:37:04
Writing library : libebml v1.2.3 + libmatroska v1.3.0

Video
ID : 1
Format : AVC
Format/Info : Advanced Video Codec
Format profile : High@L4.1
Format settings, CABAC : Yes
Format settings, ReFrames : 4 frames
Codec ID : V_MPEG4/ISO/AVC
Duration : 57mn 6s
Bit rate : 13.9 Mbps
Width : 1 916 pixels
Height : 1 074 pixels
Display aspect ratio : 16:9
Frame rate : 29.970 fps
Color space : YUV
Chroma subsampling : 4:2:0
Bit depth : 8 bits
Scan type : Progressive
Bits/(Pixel*Frame) : 0.225
Stream size : 5.53 GiB (85%)
Title : Dlja chuvstv.(2009).BDRip.1080p.[denis100]
Writing library : x264 core 148 r2665 a01e339
Encoding settings : cabac=1 / ref=4 / deblock=1:-3:-3 / analyse=0x3:0x133 / me=umh / subme=11 / psy=1 / psy_rd=1.00:0.00 / mixed_ref=1 / me_range=32 / chroma_me=1 / trellis=2 / 8x8dct=1 / cqm=0 / deadzone=21,11 / fast_pskip=0 / chroma_qp_offset=-2 / threads=6 / lookahead_threads=1 / sliced_threads=0 / nr=0 / decimate=1 / interlaced=0 / bluray_compat=0 / constrained_intra=0 / bframes=12 / b_pyramid=2 / b_adapt=2 / b_bias=0 / direct=3 / weightb=1 / open_gop=0 / weightp=2 / keyint=250 / keyint_min=25 / scenecut=40 / intra_refresh=0 / rc=crf / mbtree=0 / crf=17.9 / qcomp=0.60 / qpmin=0 / qpmax=69 / qpstep=4 / ip_ratio=1.40 / pb_ratio=1.30 / aq=1:1.00
Language : English
Default : Yes
Forced : No

Audio #1
ID : 2
Format : AC-3
Format/Info : Audio Coding 3
Mode extension : CM (complete main)
Codec ID : A_AC3
Duration : 57mn 6s
Bit rate mode : Constant
Bit rate : 640 Kbps
Channel(s) : 6 channels
Channel positions : Front: L C R, Side: L R, LFE
Sampling rate : 48.0 KHz
Bit depth : 16 bits
Compression mode : Lossy
Stream size : 261 MiB (4%)
Language : English
Default : Yes
Forced : No

Audio #2
ID : 3
Format : DTS
Format/Info : Digital Theater Systems
Codec ID : A_DTS
Duration : 57mn 6s
Bit rate mode : Constant
Bit rate : 1 510 Kbps
Channel(s) : 6 channels
Channel positions : Front: L C R, Side: L R, LFE
Sampling rate : 48.0 KHz
Bit depth : 24 bits
Compression mode : Lossy
Stream size : 617 MiB (9%)
Language : English
Default : No
Forced : No

Menu
00:00:00.000 : en:Prologue «Lift Off»
00:01:36.096 : en:Genesis «Embracing The Day»
00:04:50.289 : en:Terri Bjerre: Kaleidoscope «Journey To Beyond»
00:08:46.759 : en:Monochrome «Deep In Blue»
00:13:21.300 : en:Mariana Wagner: Perspicacious «Song For Another World»
00:16:51.877 : en:Macroscopy «Splashing H2O»
00:20:50.949 : en:Stefanie Hoffmann: Astronautics «Floating In Space»
00:24:40.145 : en:Mariana Wagner: Mountainous «Feeling Free»
00:28:00.912 : en:Photosynthesis «Step Into Green»
00:32:40.291 : en:Rapidity «Verdure - Nature»
00:34:18.890 : en:Eruptive «Evolving From Red»
00:37:45.930 : en:Fabienne Rohan: Aerogen «From Far Away»
00:41:20.010 : en:Tranquility «Vastness»
00:45:58.255 : en:Humanity «City Lights»
00:50:18.782 : en:Epilogue «Adagio For Summary» / «Going On, It's Okay»
00:53:59.803 : en:titles
x264 [info]: frame I:446 Avg QP:14.33 size:181340
x264 [info]: frame P:22111 Avg QP:16.37 size: 97676
x264 [info]: frame B:80146 Avg QP:18.85 size: 47848
загрузка...
Правила, инструкции, FAQ!!!
Торрент  Добавлен [17 апр 2016, 22:06] Скачать торрент Магнет ссылка
Скачать торрент
[ Размер 33.34 КБ / Просмотров 120 ]

Статус
Проверен 
 
Размер  6.52 ГБ
Приватный: Нет (DHT включён)
.torrent скачан  21
Как залить торрент? | Как скачать Torrent? | Ошибка в торренте? Качайте магнет  


     Отправить личное сообщение
   
Страница 1 из 1
Показать сообщения за:  Поле сортировки  
Начать новую тему Ответить на тему

   Похожие торренты   Автор   Ответы   Просмотры   Последнее сообщение 
В этой теме нет новых непрочитанных сообщений. Скачать торрент Проверен Для Чувств 2 / Forsenses II (2011) BDRip 1080p

в форуме Клипы (HD-Video), Размер: 6.85 ГБ, Здоровье: 100%

Гость

0
150|9

561
27

17 апр 2016, 22:07

Гость Перейти к последнему сообщению

В этой теме нет новых непрочитанных сообщений. Скачать торрент Проверен [iPad] Воспитание чувств / An Education (Лоне Шерфиг/ Lone Scherfig) [2009, Великобритания, США, Драма, BDRip, 576p] MVO + Original + sub (rus, eng)

в форуме Фильмы для iPod, iPhone, iPad, Размер: 1.72 ГБ, Здоровье: 100%

Anonymous

0
21|7

79
0

13 май 2015, 23:59

Anonymous Перейти к последнему сообщению

В этой теме нет новых непрочитанных сообщений. Скачать торрент Blu elements project - Forsenses (2009)[DTS-СD] <New Age, World Music, Meditative>

в форуме DTS CD / SACD-R, Размер: 576.4 МБ, Здоровье: 0%

Anonymous

0
1|102

127
1

21 мар 2014, 13:55

Anonymous Перейти к последнему сообщению

В этой теме нет новых непрочитанных сообщений. Скачать торрент Проверен [DTSCD][BR] Blu elements project - Forsenses - 2009 (New Age, World Music, Meditative)

в форуме DTS CD / SACD-R, Размер: 576.4 МБ, Здоровье: 100%

Anonymous

0
487|18

236
49

06 май 2015, 00:06

Anonymous Перейти к последнему сообщению

В этой теме нет новых непрочитанных сообщений. Скачать торрент Без чувств / Senseless (1998) BDRip [H.264/720р-LQ]

в форуме 720p | 1080p, Размер: 2.18 ГБ, Здоровье: 100%

Anonymous

0
41|2

135
40

08 янв 2014, 22:44

Anonymous Перейти к последнему сообщению



Сейчас этот форум просматривают: нет зарегистрированных пользователей и гости: 0


Вы не можете начинать темы
Вы не можете отвечать на сообщения
Вы не можете редактировать свои сообщения
Вы не можете удалять свои сообщения
Вы не можете добавлять вложения

Перейти:  
Ресурс не предоставляет электронные версии произведений, а занимается лишь коллекционированием и каталогизацией ссылок, присылаемых и публикуемых на форуме нашими читателями. Если вы являетесь правообладателем какого-либо представленного материала и не желаете чтобы ссылка на него находилась в нашем каталоге, свяжитесь с нами и мы незамедлительно удалим её. Файлы для обмена на трекере предоставлены пользователями сайта, и администрация не несёт ответственности за их содержание. Просьба не заливать файлы, защищенные авторскими правами, а также файлы нелегального содержания!
cron