На всех торрентах на трекере установлена скидка на скачивание в размере 100 процентов(а).
 Возможность скачивания торрента НЕ зависит от ограничений при низком ратио, низком аплоаде, требуемом ратио или требуемом аплоаде.


Начать новую тему Ответить на тему
Статистика раздачи
Размер: 4.34 ГБ | Добавлен: 14 фев 2016, 10:09 | Скачали: 37
Сидеров: 232  [0 байт/сек]    Личеров: 47  [0 байт/сек]
Пред. тема | След. тема 

Автор
Сообщение

СообщениеДобавлено: 14 фев 2016, 10:09 

Ответить с цитатой 

Название: Джек Восьмеркин - "американец"
Год выхода: 1986
Жанр: Комедия, Музыкальный
Режиссер: Евгений Татарский
В ролях: Александр Кузнецов, Лев Дуров, Евгений Евстигнеев, Любовь Малиновская, Ирина Ракшина, Михаил Васьков, Надежда Смирнова, Александр Галибин, Юлия Чекмарева, Алексей Кожевников
О фильме:
Яша Восьмеркин мальчишкой попал в Америку, но, узнав, что в России произошла революция, решил вернуться домой. Так Яша, ставший в Америке Джеком, сделался русским фермером и начал на родной земле внедрять в жизнь свои американские замыслы...

Страна: СССР
Продолжительность: 3 x ~ 01:04:00
Перевод: не требуется


Кодек: x264
Качество: DVDRip-AVC
Видео: MPEG-4 AVC, ~ 3075 Кбит/с, 720x556@768x556
Звук: AC3, 2 ch, 192 Кбит/с

Общее
Уникальный идентификатор : 247437905015518119830272040869778740460 (0xBA26CE9BC8D6283A9824BB31A024D4EC)
Полное имя : R:МОИ РИПЫДжек Восьмеркин — «американец»_1986-DVDRip-AVCДжек Восьмеркин - американец-1.mkv
Формат : Matroska
Версия формата : Version 2
Размер файла : 1,45 Гбайт
Продолжительность : 1 ч. 3 м.
Общий поток : 3269 Кбит/сек
Дата кодирования : UTC 2014-10-12 03:36:12
Программа кодирования : mkvmerge v5.2.0 ('I can't explain') built on Dec 18 2011 18:12:03
Библиотека кодирования : libebml v1.2.3 + libmatroska v1.3.0

Видео
Идентификатор : 1
Формат : AVC
Формат/Информация : Advanced Video Codec
Профиль формата : High@L4.1
Параметр CABAC формата : Да
Параметр ReFrames формата : 13 кадров
Идентификатор кодека : V_MPEG4/ISO/AVC
Продолжительность : 1 ч. 3 м.
Битрейт : 3075 Кбит/сек
Ширина : 720 пикселей
Высота : 556 пикселей
Соотношение сторон : 1,381
Режим частоты кадров : Постоянный
Частота кадров : 25,000 кадров/сек
Цветовое пространство : YUV
Субдискретизация насыщенности : 4:2:0
Битовая глубина : 8 бит
Тип развёртки : Прогрессивная
Бит/(Пиксели*Кадры) : 0.307
Размер потока : 1,34 Гбайт (92%)
Библиотека кодирования : x264 core 142 r2431 ac76440
Настройки программы : cabac=1 / ref=13 / deblock=1:-2:-2 / analyse=0x3:0x133 / me=umh / subme=10 / psy=1 / psy_rd=1.05:0.15 / mixed_ref=1 / me_range=32 / chroma_me=1 / trellis=2 / 8x8dct=1 / cqm=0 / deadzone=21,11 / fast_pskip=0 / chroma_qp_offset=-3 / threads=12 / lookahead_threads=2 / sliced_threads=0 / nr=0 / decimate=0 / interlaced=0 / bluray_compat=0 / constrained_intra=0 / bframes=8 / b_pyramid=2 / b_adapt=2 / b_bias=0 / direct=3 / weightb=1 / open_gop=0 / weightp=2 / keyint=250 / keyint_min=25 / scenecut=40 / intra_refresh=0 / rc=2pass / mbtree=0 / bitrate=3075 / ratetol=1.0 / qcomp=0.65 / qpmin=0 / qpmax=39 / qpstep=4 / cplxblur=20.0 / qblur=0.5 / ip_ratio=1.40 / pb_ratio=1.30 / aq=1:1.00
Default : Да
Forced : Нет
Основные цвета : BT.601 PAL
Характеристики трансфера : BT.470 System B, BT.470 System G
Коэффициенты матрицы : BT.601

Аудио
Идентификатор : 2
Формат : AC-3
Формат/Информация : Audio Coding 3
Расширение режима : CM (complete main)
Параметр Endianness формата : Big
Идентификатор кодека : A_AC3
Продолжительность : 1 ч. 3 м.
Вид битрейта : Постоянный
Битрейт : 192 Кбит/сек
Каналы : 2 канала
Расположение каналов : Front: L R
Частота : 48,0 КГц
Битовая глубина : 16 бит
Метод сжатия : С потерями
Размер потока : 87,4 Мбайт (6%)
Default : Да
Forced : Нет



Автор релиза:
загрузка...
Правила, инструкции, FAQ!!!
Торрент  Добавлен [14 фев 2016, 10:09] Скачать торрент Магнет ссылка
Скачать торрент
[ Размер 22.62 КБ / Просмотров 111 ]

Статус
Проверен 
 
Размер  4.34 ГБ
Приватный: Нет (DHT включён)
.torrent скачан  37
Как залить торрент? | Как скачать Torrent? | Ошибка в торренте? Качайте магнет  


     Отправить личное сообщение
   
Страница 1 из 1
Показать сообщения за:  Поле сортировки  
Начать новую тему Ответить на тему

   Похожие торренты   Автор   Ответы   Просмотры   Последнее сообщение 
В этой теме нет новых непрочитанных сообщений. Скачать торрент Проверен Смирнов Н.Г. - Джек Восьмеркин американец [1934, FB2, RUS]

в форуме Детская литература, Размер: 2.81 МБ, Здоровье: 100%

Anonymous

0
2|0

17
0

26 май 2018, 14:50

Anonymous Перейти к последнему сообщению

В этой теме нет новых непрочитанных сообщений. Скачать торрент Проверен Николай Смирнов | Джек Восьмеркин - американец [2011] [mp3]

в форуме Сатира, юмор, Размер: 1003.58 МБ, Здоровье: 33%

Anonymous

0
3|9

86
0

24 сен 2015, 20:03

Anonymous Перейти к последнему сообщению

В этой теме нет новых непрочитанных сообщений. Скачать торрент Проверен Работа за орехи 3Д / Working for Peanuts 3D (Джек Ханна / Jack Hannah) [1953 г., мультфильм, DVDRip] Anaglyph / Анаглиф

в форуме 3D Мультфильмы, Размер: 116.91 МБ, Здоровье: 0%

Anonymous

0
0|0

58
0

07 сен 2016, 17:38

Anonymous Перейти к последнему сообщению

В этой теме нет новых непрочитанных сообщений. Скачать торрент Проверен Под псевдонимом: Джек Стронг / Джек Стронг / Jack Strong (2014) BDRip-AVC

в форуме Триллеры, Размер: 2.4 ГБ, Здоровье: 100%

Anonymous

0
57|0

132
1

06 июл 2014, 21:10

Anonymous Перейти к последнему сообщению

В этой теме нет новых непрочитанных сообщений. Скачать торрент Американец / The American (2010) BDRip 720p | Лицензия

в форуме 720p | 1080p, Размер: 6.17 ГБ, Здоровье: 100%

Anonymous

0
1|0

69
0

26 окт 2013, 18:31

Anonymous Перейти к последнему сообщению



Сейчас этот форум просматривают: нет зарегистрированных пользователей и гости: 0


Вы не можете начинать темы
Вы не можете отвечать на сообщения
Вы не можете редактировать свои сообщения
Вы не можете удалять свои сообщения
Вы не можете добавлять вложения

Перейти:  
Ресурс не предоставляет электронные версии произведений, а занимается лишь коллекционированием и каталогизацией ссылок, присылаемых и публикуемых на форуме нашими читателями. Если вы являетесь правообладателем какого-либо представленного материала и не желаете чтобы ссылка на него находилась в нашем каталоге, свяжитесь с нами и мы незамедлительно удалим её. Файлы для обмена на трекере предоставлены пользователями сайта, и администрация не несёт ответственности за их содержание. Просьба не заливать файлы, защищенные авторскими правами, а также файлы нелегального содержания!