На всех торрентах на трекере установлена скидка на скачивание в размере 100 процентов(а).
 Возможность скачивания торрента НЕ зависит от ограничений при низком ратио, низком аплоаде, требуемом ратио или требуемом аплоаде.


Начать новую тему Ответить на тему
Статистика раздачи
Размер: 1.66 ГБ | Добавлен: 16 сен 2018, 18:48 | Скачали: 0
Сидеров: 0  [0 байт/сек]    Личеров: 0  [0 байт/сек]
Пред. тема | След. тема 

Автор
Сообщение

СообщениеДобавлено: 16 сен 2018, 18:48 

Ответить с цитатой 

Donna Summer - The Ultimate Collection
Жанр: Disco, R&B, Dance, Soul
Носитель: CD
Страна-производитель диска: EU
Год издания диска: 2016
Издатель (лейбл): Driven By The Music / Crimson Production
Номер по каталогу: DBTMTVS01
Страна исполнителя (группы): USA
Аудиокодек: FLAC (*.flac)
Тип рипа: image+.cue
Битрейт аудио: lossless
Продолжительность: 03:56:43
Источник (релизер): London
Наличие сканов в содержимом раздачи: да
Треклист:
#77701. Debora 03:07
02. One Inch Rock 01:46
03. King Of The Rumbling Spires 02:07
04. By The Light Of A Magical Moon 02:48
05. Ride A White Swan 2:13
06. Hot Love 04:55
07. Get It On 04:22
08. Cosmic Dancer 04:26
09. Life's A Gas 02:22
10. Jeepster 04:07
11. Is It Love? 02:34
12. The King Of The Mountain Cometh 03:51
13. Woodland Rock 02:26
14. There Was A Time/Raw Ramp/Electric Boogie 05:13
15. Lean Woman Blues 02:58
Код:
Exact Audio Copy V1.0 beta 6 from 9. April 2015
EAC extraction logfile from 5. September 2018, 7:58
Donna Summer / The Ultimate Collection - CD1 - To Dance
Used drive  : ATAPI   iHAS122   C   Adapter: 1  ID: 0
Read mode               : Secure
Utilize accurate stream : Yes
Defeat audio cache      : Yes
Make use of C2 pointers : No
Read offset correction                      : 6
Overread into Lead-In and Lead-Out          : No
Fill up missing offset samples with silence : Yes
Delete leading and trailing silent blocks   : No
Null samples used in CRC calculations       : Yes
Used interface                              : Native Win32 interface for Win NT & 2000
Used output format : Internal WAV Routines
Sample format      : 44.100 Hz; 16 Bit; Stereo
TOC of the extracted CD
     Track |   Start  |  Length  | Start sector | End sector
    ---------------------------------------------------------
        1  |  0:00.00 |  5:53.16 |         0    |    26490
        2  |  5:53.16 |  3:58.02 |     26491    |    44342
        3  |  9:51.18 |  3:38.09 |     44343    |    60701
        4  | 13:29.27 |  3:51.19 |     60702    |    78045
        5  | 17:20.46 |  4:11.66 |     78046    |    96936
        6  | 21:32.37 |  3:56.23 |     96937    |   114659
        7  | 25:28.60 |  4:25.74 |    114660    |   134608
        8  | 29:54.59 |  3:51.41 |    134609    |   151974
        9  | 33:46.25 |  3:48.04 |    151975    |   169078
       10  | 37:34.29 |  4:33.49 |    169079    |   189602
       11  | 42:08.03 |  4:00.22 |    189603    |   207624
       12  | 46:08.25 |  4:07.14 |    207625    |   226163
       13  | 50:15.39 |  3:54.32 |    226164    |   243745
       14  | 54:09.71 |  3:58.73 |    243746    |   261668
       15  | 58:08.69 |  3:49.60 |    261669    |   278903
       16  | 61:58.54 |  5:45.65 |    278904    |   304843
       17  | 67:44.44 |  7:09.18 |    304844    |   337036
       18  | 74:53.62 |  3:18.67 |    337037    |   351953
Range status and errors
Selected range
     Filename C:\Users\London\Desktop\Donna Summer - The Ultimate Collection - CD1 - To Dance.wav
     Peak level 94.4 %
     Extraction speed 8.4 X
     Range quality 100.0 %
     Test CRC C190270D
     Copy CRC C190270D
     Copy OK
No errors occurred
AccurateRip summary
Track  1  accurately ripped (confidence 18)  [F10771DE]  (AR v2)
Track  2  accurately ripped (confidence 18)  [2A60A3E1]  (AR v2)
Track  3  accurately ripped (confidence 18)  [9DAA2FEB]  (AR v2)
Track  4  accurately ripped (confidence 18)  [5879576D]  (AR v2)
Track  5  accurately ripped (confidence 18)  [59D981B8]  (AR v2)
Track  6  accurately ripped (confidence 18)  [2E947A57]  (AR v2)
Track  7  accurately ripped (confidence 18)  [F2A760B6]  (AR v2)
Track  8  accurately ripped (confidence 18)  [E4C25B43]  (AR v2)
Track  9  accurately ripped (confidence 18)  [E463C3FB]  (AR v2)
Track 10  accurately ripped (confidence 18)  [F4A05EFC]  (AR v2)
Track 11  accurately ripped (confidence 18)  [7A037FAA]  (AR v2)
Track 12  accurately ripped (confidence 18)  [F82A61A1]  (AR v2)
Track 13  accurately ripped (confidence 18)  [149C4DC9]  (AR v2)
Track 14  accurately ripped (confidence 18)  [82069ECA]  (AR v2)
Track 15  accurately ripped (confidence 18)  [CB9E94CF]  (AR v2)
Track 16  accurately ripped (confidence 18)  [F1360FD4]  (AR v2)
Track 17  accurately ripped (confidence 17)  [84031912]  (AR v2)
Track 18  accurately ripped (confidence 16)  [1AD64585]  (AR v2)
All tracks accurately ripped
End of status report
---- CUETools DB Plugin V2.1.6
[CTDB TOCID: C88u9X2.PVAo_k6.jmUp7vWxjwo-] found
Submit result: C88u9X2.PVAo_k6.jmUp7vWxjwo- has been confirmed
Track | CTDB Status
  1   | (37/37) Accurately ripped
  2   | (37/37) Accurately ripped
  3   | (37/37) Accurately ripped
  4   | (37/37) Accurately ripped
  5   | (37/37) Accurately ripped
  6   | (37/37) Accurately ripped
  7   | (37/37) Accurately ripped
  8   | (37/37) Accurately ripped
  9   | (37/37) Accurately ripped
 10   | (37/37) Accurately ripped
 11   | (37/37) Accurately ripped
 12   | (37/37) Accurately ripped
 13   | (37/37) Accurately ripped
 14   | (37/37) Accurately ripped
 15   | (37/37) Accurately ripped
 16   | (37/37) Accurately ripped
 17   | (37/37) Accurately ripped
 18   | (37/37) Accurately ripped
==== Log checksum 215AC9FFC0ACC09BDFD3C4BDB6AABC39C8BB7E57F28B144850BB9A82DCF662FC ====
Код:
REM GENRE Disco
REM DATE 2016
REM DISCID EE125412
REM COMMENT "ExactAudioCopy v1.0b6"
PERFORMER "Donna Summer"
TITLE "The Ultimate Collection - CD1 - To Dance"
FILE "Donna Summer - The Ultimate Collection - CD1 - To Dance.flac" WAVE
  TRACK 01 AUDIO
    TITLE "I Feel Love"
    PERFORMER "Donna Summer"
    FLAGS DCP
    INDEX 01 00:00:00
  TRACK 02 AUDIO
    TITLE "MacArthur Park"
    PERFORMER "Donna Summer"
    FLAGS DCP
    INDEX 00 05:52:37
    INDEX 01 05:53:16
  TRACK 03 AUDIO
    TITLE "This Time I Know It's For Real"
    PERFORMER "Donna Summer"
    FLAGS DCP
    INDEX 00 09:49:29
    INDEX 01 09:51:18
  TRACK 04 AUDIO
    TITLE "Hot Stuff"
    PERFORMER "Donna Summer"
    FLAGS DCP
    INDEX 00 13:27:71
    INDEX 01 13:29:27
  TRACK 05 AUDIO
    TITLE "Dinner With Gershwin"
    PERFORMER "Donna Summer"
    FLAGS DCP
    INDEX 00 17:19:24
    INDEX 01 17:20:46
  TRACK 06 AUDIO
    TITLE "Bad Girls"
    PERFORMER "Donna Summer"
    FLAGS DCP
    INDEX 00 21:31:15
    INDEX 01 21:32:37
  TRACK 07 AUDIO
    TITLE "State Of Independence"
    PERFORMER "Donna Summer"
    FLAGS DCP
    INDEX 00 25:27:01
    INDEX 01 25:28:60
  TRACK 08 AUDIO
    TITLE "Rumour Has It"
    PERFORMER "Donna Summer"
    FLAGS DCP
    INDEX 00 29:53:44
    INDEX 01 29:54:59
  TRACK 09 AUDIO
    TITLE "The Wanderer"
    PERFORMER "Donna Summer"
    FLAGS DCP
    INDEX 00 33:44:60
    INDEX 01 33:46:25
  TRACK 10 AUDIO
    TITLE "She Works Hard For The Money"
    PERFORMER "Donna Summer"
    FLAGS DCP
    INDEX 00 37:32:45
    INDEX 01 37:34:29
  TRACK 11 AUDIO
    TITLE "All Systems Go (Edit)"
    PERFORMER "Donna Summer"
    FLAGS DCP
    INDEX 01 42:08:03
  TRACK 12 AUDIO
    TITLE "On The Radio"
    PERFORMER "Donna Summer"
    FLAGS DCP
    INDEX 00 46:06:53
    INDEX 01 46:08:25
  TRACK 13 AUDIO
    TITLE "Heaven Knows"
    PERFORMER "Donna Summer with Brooklyn Dreams"
    FLAGS DCP
    INDEX 00 50:12:65
    INDEX 01 50:15:39
  TRACK 14 AUDIO
    TITLE "Sunset People"
    PERFORMER "Donna Summer"
    FLAGS DCP
    INDEX 00 54:08:09
    INDEX 01 54:09:71
  TRACK 15 AUDIO
    TITLE "Eyes (Jellybean Remix Edit)"
    PERFORMER "Donna Summer"
    FLAGS DCP
    INDEX 00 58:06:68
    INDEX 01 58:08:69
  TRACK 16 AUDIO
    TITLE "Power Of Love (Hani's Mixshow Edit)"
    PERFORMER "Donna Summer"
    FLAGS DCP
    INDEX 00 61:57:07
    INDEX 01 61:58:54
  TRACK 17 AUDIO
    TITLE "I'm A Fire (Solitaire Club Mix)"
    PERFORMER "Donna Summer"
    FLAGS DCP
    INDEX 00 67:42:54
    INDEX 01 67:44:44
  TRACK 18 AUDIO
    TITLE "Last Dance"
    PERFORMER "Donna Summer"
    FLAGS DCP
    INDEX 00 74:53:31
    INDEX 01 74:53:62
Код:
-----------------------
DON'T MODIFY THIS FILE
-----------------------
PERFORMER: auCDtect Task Manager, ver. 1.5.1RC4 build 1.5.1.5
Copyright (c) 2008-2010 y-soft. All rights reserved
[url=http://y-soft.org]http://y-soft.org[/url]
ANALYZER: auCDtect: CD records authenticity detector, version 0.8.2
Copyright (c) 2004 Oleg Berngardt. All rights reserved.
Copyright (c) 2004 Alexander Djourik. All rights reserved.
FILE: Donna Summer - The Ultimate Collection - CD1 - To Dance.flac
  Size: 563852029 Hash: AC1AC5356EE547922355FDD388186097 Accuracy: -m0
  Conclusion: CDDA 100%
  Signature: 6FED1B6F5FF1F58C3CFD3AD719EAE602B19FD644
Код:
foobar2000 1.3.13 / Замер динамического диапазона (DR) 1.1.1
Дата отчёта:  2018-09-05 08:46:50
--------------------------------------------------------------------------------
Анализ:   Donna Summer / The Ultimate Collection - CD1 - To Dance
--------------------------------------------------------------------------------
DR         Пики         RMS           Продолжительность трека
--------------------------------------------------------------------------------
DR12      -0.50 дБ   -14.40 дБ      5:53 01-I Feel Love
DR9       -0.50 дБ   -11.14 дБ      3:58 02-MacArthur Park
DR8       -1.95 дБ   -11.72 дБ      3:38 03-This Time I Know It's For Real
DR9       -0.50 дБ   -10.57 дБ      3:51 04-Hot Stuff
DR9       -1.90 дБ   -12.29 дБ      4:12 05-Dinner With Gershwin
DR9       -0.50 дБ   -11.24 дБ      3:56 06-Bad Girls
DR10      -0.50 дБ   -12.73 дБ      4:26 07-State Of Independence
DR9       -0.50 дБ   -10.89 дБ      3:52 08-Rumour Has It
DR9       -0.90 дБ   -11.73 дБ      3:48 09-The Wanderer
DR8       -0.50 дБ   -10.81 дБ      4:34 10-She Works Hard For The Money
DR8       -2.05 дБ   -12.36 дБ      4:00 11-All Systems Go (Edit)
DR8       -0.80 дБ   -11.69 дБ      4:07 12-On The Radio
DR10      -0.50 дБ   -11.99 дБ      3:59 14-Sunset People
DR9       -1.70 дБ   -12.63 дБ      3:50 15-Eyes (Jellybean Remix Edit)
DR7       -2.60 дБ   -11.09 дБ      5:46 16-Power Of Love (Hani's Mixshow Edit)
DR5       -5.00 дБ   -10.80 дБ      7:09 17-I'm A Fire (Solitaire Club Mix)
DR7       -0.80 дБ   -10.27 дБ      3:19 18-Last Dance
--------------------------------------------------------------------------------
Количество треков: 17
Реальные значения DR: DR9
Частота:   44100 Гц
Каналов:   2
Разрядность:   16
Битрейт:   961 кбит/с
Кодек:   FLAC
================================================================================
foobar2000 1.3.13 / Замер динамического диапазона (DR) 1.1.1
Дата отчёта:  2018-09-05 08:46:35
--------------------------------------------------------------------------------
Статистика для:  13-Heaven Knows
Количество сэмплов: 10338216
Продолжительность: 3:54
--------------------------------------------------------------------------------
           Левый             Правый
Пики:               -0.50 дБ     ---     -0.50 дБ
Средний RMS:             -11.73 дБ     ---    -11.62 дБ
DR канала:               9.10 дБ     ---      9.10 дБ
--------------------------------------------------------------------------------
Реальные значения DR: DR9
Частота:   44100 Гц
Каналов:   2
Разрядность:   16
Битрейт:   961 кбит/с
Кодек:   FLAC
================================================================================
#77701. No More Tears (Enough Is Enough) with Barbra Streisand (1979)
02. Love's Unkind (1977)
03. Love to Love You Baby (1975)
04. Down Deep Inside (Theme from 'The Deep') (1977)
05. Could It Be Magic (1976)
06. Try Me, I Know We Can Make It (1976)
07. Spring Affair (1976)
08. I Love You (1977)
09. Unconditional Love with Musical Youth (1983)
10. Love Is in Control (Finger on the Trigger) (1982)
11. I Don't Wanna Get Hurt (7" Remix) (1989)
12. When Love Takes Over You (Dave Ford 7" Remix) (1989)
13. Breakaway (Power Radio Mix) (1990)
14. Melody of Love (Wanna Be Loved) (West End 7" Radio Mix) (1994)
15. Winter Melody (1977)
16. The Woman in Me (1982)
17. Back in Love Again (1977)
18. Dim All the Lights (1979)
19. Cold Love (Edit) (1980)
20. Love's About to Change My Heart (PWL 7" Mix) (1989)
Код:
Exact Audio Copy V1.0 beta 6 from 9. April 2015
EAC extraction logfile from 5. September 2018, 7:30
Donna Summer / The Ultimate Collection - CD2 - To Love
Used drive  : ATAPI   iHAS122   C   Adapter: 1  ID: 0
Read mode               : Secure
Utilize accurate stream : Yes
Defeat audio cache      : Yes
Make use of C2 pointers : No
Read offset correction                      : 6
Overread into Lead-In and Lead-Out          : No
Fill up missing offset samples with silence : Yes
Delete leading and trailing silent blocks   : No
Null samples used in CRC calculations       : Yes
Used interface                              : Native Win32 interface for Win NT & 2000
Used output format : Internal WAV Routines
Sample format      : 44.100 Hz; 16 Bit; Stereo
TOC of the extracted CD
     Track |   Start  |  Length  | Start sector | End sector
    ---------------------------------------------------------
        1  |  0:00.00 |  4:49.46 |         0    |    21720
        2  |  4:49.46 |  4:28.31 |     21721    |    41851
        3  |  9:18.02 |  3:20.63 |     41852    |    56914
        4  | 12:38.65 |  4:24.68 |     56915    |    76782
        5  | 17:03.58 |  3:56.65 |     76783    |    94547
        6  | 21:00.48 |  4:48.25 |     94548    |   116172
        7  | 25:48.73 |  4:03.43 |    116173    |   134440
        8  | 29:52.41 |  3:20.66 |    134441    |   149506
        9  | 33:13.32 |  3:58.74 |    149507    |   167430
       10  | 37:12.31 |  3:44.04 |    167431    |   184234
       11  | 40:56.35 |  3:34.40 |    184235    |   200324
       12  | 44:31.00 |  3:38.71 |    200325    |   216745
       13  | 48:09.71 |  3:59.49 |    216746    |   234719
       14  | 52:09.45 |  4:17.43 |    234720    |   254037
       15  | 56:27.13 |  4:04.22 |    254038    |   272359
       16  | 60:31.35 |  3:56.36 |    272360    |   290095
       17  | 64:27.71 |  3:58.11 |    290096    |   307956
       18  | 68:26.07 |  4:25.47 |    307957    |   327878
       19  | 72:51.54 |  3:18.11 |    327879    |   342739
       20  | 76:09.65 |  3:45.23 |    342740    |   359637
Range status and errors
Selected range
     Filename C:\Users\London\Desktop\Donna Summer - The Ultimate Collection - CD2 - To Love.wav
     Peak level 100.0 %
     Extraction speed 3.8 X
     Range quality 100.0 %
     Test CRC FB4595B4
     Copy CRC FB4595B4
     Copy OK
No errors occurred
AccurateRip summary
Track  1  accurately ripped (confidence 17)  [550C10F1]  (AR v2)
Track  2  accurately ripped (confidence 17)  [4B343512]  (AR v2)
Track  3  accurately ripped (confidence 17)  [3A30EEF2]  (AR v2)
Track  4  accurately ripped (confidence 17)  [5A1AD535]  (AR v2)
Track  5  accurately ripped (confidence 17)  [315349AA]  (AR v2)
Track  6  accurately ripped (confidence 17)  [5A985F26]  (AR v2)
Track  7  accurately ripped (confidence 17)  [A04D9793]  (AR v2)
Track  8  accurately ripped (confidence 17)  [78AB65DA]  (AR v2)
Track  9  accurately ripped (confidence 17)  [6C676826]  (AR v2)
Track 10  accurately ripped (confidence 17)  [4C65CA00]  (AR v2)
Track 11  accurately ripped (confidence 17)  [C7B9678D]  (AR v2)
Track 12  accurately ripped (confidence 17)  [88458DBE]  (AR v2)
Track 13  accurately ripped (confidence 17)  [45E897F4]  (AR v2)
Track 14  accurately ripped (confidence 17)  [02468252]  (AR v2)
Track 15  accurately ripped (confidence 17)  [A9B1C1A3]  (AR v2)
Track 16  accurately ripped (confidence 17)  [1E88B424]  (AR v2)
Track 17  accurately ripped (confidence 17)  [E2BB44AC]  (AR v2)
Track 18  accurately ripped (confidence 16)  [49820E5B]  (AR v2)
Track 19  accurately ripped (confidence 16)  [FD0C2B99]  (AR v2)
Track 20  accurately ripped (confidence 16)  [09C9D3A1]  (AR v2)
All tracks accurately ripped
End of status report
---- CUETools DB Plugin V2.1.6
[CTDB TOCID: .oQkF83.9EV6c9tFgbo0mku4t4A-] found
Submit result: .oQkF83.9EV6c9tFgbo0mku4t4A- has been confirmed
Track | CTDB Status
  1   | (32/32) Accurately ripped
  2   | (32/32) Accurately ripped
  3   | (32/32) Accurately ripped
  4   | (32/32) Accurately ripped
  5   | (32/32) Accurately ripped
  6   | (32/32) Accurately ripped
  7   | (32/32) Accurately ripped
  8   | (32/32) Accurately ripped
  9   | (32/32) Accurately ripped
 10   | (32/32) Accurately ripped
 11   | (32/32) Accurately ripped
 12   | (32/32) Accurately ripped
 13   | (32/32) Accurately ripped
 14   | (32/32) Accurately ripped
 15   | (32/32) Accurately ripped
 16   | (32/32) Accurately ripped
 17   | (32/32) Accurately ripped
 18   | (32/32) Accurately ripped
 19   | (32/32) Accurately ripped
 20   | (32/32) Accurately ripped
==== Log checksum 6AAE8642EEC03F6C9A9EB6E124637E08A92A7A37B192B3A9BC0C9DBAA9003417 ====
Код:
REM GENRE Disco
REM DATE 2016
REM DISCID 2D12BB14
REM COMMENT "ExactAudioCopy v1.0b6"
PERFORMER "Donna Summer"
TITLE "The Ultimate Collection - CD2 - To Love"
FILE "Donna Summer - The Ultimate Collection - CD2 - To Love.flac" WAVE
  TRACK 01 AUDIO
    TITLE "No More Tears (Enough Is Enough)"
    PERFORMER "Donna Summer with Barbara Streisand"
    FLAGS DCP
    INDEX 01 00:00:00
  TRACK 02 AUDIO
    TITLE "Love's Unkind"
    PERFORMER "Donna Summer"
    FLAGS DCP
    INDEX 00 04:47:55
    INDEX 01 04:49:46
  TRACK 03 AUDIO
    TITLE "Love To Love You Baby"
    PERFORMER "Donna Summer"
    FLAGS DCP
    INDEX 00 09:16:22
    INDEX 01 09:18:02
  TRACK 04 AUDIO
    TITLE "Down Deep Inside (Theme From The Deep)"
    PERFORMER "Donna Summer"
    FLAGS DCP
    INDEX 01 12:38:65
  TRACK 05 AUDIO
    TITLE "Could It Be Magic"
    PERFORMER "Donna Summer"
    FLAGS DCP
    INDEX 00 17:02:45
    INDEX 01 17:03:58
  TRACK 06 AUDIO
    TITLE "Try Me, I Know We Can Make It"
    PERFORMER "Donna Summer"
    FLAGS DCP
    INDEX 00 20:58:63
    INDEX 01 21:00:48
  TRACK 07 AUDIO
    TITLE "Spring Affair"
    PERFORMER "Donna Summer"
    FLAGS DCP
    INDEX 00 25:46:56
    INDEX 01 25:48:73
  TRACK 08 AUDIO
    TITLE "I Love You"
    PERFORMER "Donna Summer"
    FLAGS DCP
    INDEX 00 29:50:27
    INDEX 01 29:52:41
  TRACK 09 AUDIO
    TITLE "Unconditional Love"
    PERFORMER "Donna Summer with Musical Youth"
    FLAGS DCP
    INDEX 00 33:12:01
    INDEX 01 33:13:32
  TRACK 10 AUDIO
    TITLE "Love Is In Control (Finger On The Trigger)"
    PERFORMER "Donna Summer"
    FLAGS DCP
    INDEX 00 37:10:61
    INDEX 01 37:12:31
  TRACK 11 AUDIO
    TITLE "I Don't Wanna Get Hurt (7'' Remix)"
    PERFORMER "Donna Summer"
    FLAGS DCP
    INDEX 00 40:54:67
    INDEX 01 40:56:35
  TRACK 12 AUDIO
    TITLE "When Love Takes Over You (Dave Ford 7'' Remix)"
    PERFORMER "Donna Summer"
    FLAGS DCP
    INDEX 00 44:28:49
    INDEX 01 44:31:00
  TRACK 13 AUDIO
    TITLE "Breakaway (Power Radio Mix)"
    PERFORMER "Donna Summer"
    FLAGS DCP
    INDEX 00 48:08:25
    INDEX 01 48:09:71
  TRACK 14 AUDIO
    TITLE "Melody Of Love"
    PERFORMER "Donna Summer"
    FLAGS DCP
    INDEX 00 52:07:21
    INDEX 01 52:09:45
  TRACK 15 AUDIO
    TITLE "Winter Melody"
    PERFORMER "Donna Summer"
    FLAGS DCP
    INDEX 00 56:26:09
    INDEX 01 56:27:13
  TRACK 16 AUDIO
    TITLE "The Woman In Me"
    PERFORMER "Donna Summer"
    FLAGS DCP
    INDEX 00 60:29:20
    INDEX 01 60:31:35
  TRACK 17 AUDIO
    TITLE "Back In Love Again"
    PERFORMER "Donna Summer"
    FLAGS DCP
    INDEX 00 64:26:20
    INDEX 01 64:27:71
  TRACK 18 AUDIO
    TITLE "Dim All The Lights"
    PERFORMER "Donna Summer"
    FLAGS DCP
    INDEX 00 68:24:49
    INDEX 01 68:26:07
  TRACK 19 AUDIO
    TITLE "Cold Love (Edit)"
    PERFORMER "Donna Summer"
    FLAGS DCP
    INDEX 00 72:49:63
    INDEX 01 72:51:54
  TRACK 20 AUDIO
    TITLE "Love's About To Change My Heart (PWL 7'' Mix)"
    PERFORMER "Donna Summer"
    FLAGS DCP
    INDEX 00 76:07:73
    INDEX 01 76:09:65
Код:
-----------------------
DON'T MODIFY THIS FILE
-----------------------
PERFORMER: auCDtect Task Manager, ver. 1.5.1RC4 build 1.5.1.5
Copyright (c) 2008-2010 y-soft. All rights reserved
[url=http://y-soft.org]http://y-soft.org[/url]
ANALYZER: auCDtect: CD records authenticity detector, version 0.8.2
Copyright (c) 2004 Oleg Berngardt. All rights reserved.
Copyright (c) 2004 Alexander Djourik. All rights reserved.
FILE: Donna Summer - The Ultimate Collection - CD2 - To Love.flac
  Size: 569627616 Hash: AD3582968B8E002D97493EF452EA69F0 Accuracy: -m0
  Conclusion: CDDA 100%
  Signature: 468110046496AFEBF93F2978A710615AF653E3DF
Код:
foobar2000 1.3.13 / Замер динамического диапазона (DR) 1.1.1
Дата отчёта:  2018-09-05 07:38:51
--------------------------------------------------------------------------------
Анализ:   Donna Summer with Barbara Streisand / The Ultimate Collection - CD2 - To Love (1)
          Donna Summer with Musical Youth / The Ultimate Collection - CD2 - To Love (2)
--------------------------------------------------------------------------------
DR         Пики         RMS           Продолжительность трека
--------------------------------------------------------------------------------
DR9       -1.30 дБ   -13.42 дБ      4:50 01-No More Tears (Enough Is Enough)
DR11      -1.30 дБ   -13.93 дБ      3:59 09-Unconditional Love
--------------------------------------------------------------------------------
Количество треков: 2
Реальные значения DR: DR10
Частота:   44100 Гц
Каналов:   2
Разрядность:   16
Битрейт:   950 кбит/с
Кодек:   FLAC
================================================================================
--------------------------------------------------------------------------------
Анализ:   Donna Summer / The Ultimate Collection - CD2 - To Love
--------------------------------------------------------------------------------
DR         Пики         RMS           Продолжительность трека
--------------------------------------------------------------------------------
DR10      -1.30 дБ   -12.68 дБ      4:28 02-Love's Unkind
DR10      -1.30 дБ   -13.22 дБ      3:21 03-Love To Love You Baby
DR10      -1.30 дБ   -12.93 дБ      4:25 04-Down Deep Inside (Theme From The Deep)
DR9        0.00 дБ   -12.70 дБ      3:57 05-Could It Be Magic
DR10      -1.30 дБ   -13.35 дБ      4:48 06-Try Me, I Know We Can Make It
DR8       -1.84 дБ   -11.99 дБ      4:04 07-Spring Affair
DR9       -1.60 дБ   -12.63 дБ      3:21 08-I Love You
DR10      -1.80 дБ   -13.85 дБ      3:44 10-Love Is In Control (Finger On The Trigger)
DR9       -2.20 дБ   -12.35 дБ      3:35 11-I Don't Wanna Get Hurt (7'' Remix)
DR10      -1.75 дБ   -13.15 дБ      3:39 12-When Love Takes Over You (Dave Ford 7'' Remix)
DR7       -4.26 дБ   -13.27 дБ      4:00 13-Breakaway (Power Radio Mix)
DR10      -1.30 дБ   -14.12 дБ      4:18 14-Melody Of Love
DR10      -0.80 дБ   -13.53 дБ      4:04 15-Winter Melody
DR11      -1.30 дБ   -14.47 дБ      3:56 16-The Woman In Me
DR10      -1.30 дБ   -12.67 дБ      3:58 17-Back In Love Again
DR10      -1.30 дБ   -13.08 дБ      4:26 18-Dim All The Lights
DR9       -1.30 дБ   -12.86 дБ      3:18 19-Cold Love (Edit)
DR8       -2.70 дБ   -12.53 дБ      3:45 20-Love's About To Change My Heart (PWL 7'' Mix)
--------------------------------------------------------------------------------
Количество треков: 18
Реальные значения DR: DR10
Частота:   44100 Гц
Каналов:   2
Разрядность:   16
Битрейт:   950 кбит/с
Кодек:   FLAC
================================================================================
#77701. I Remember Yesterday (1977)
02. Wasserman ('Aquarius') (1968)
03. Oh, Segne Gott Mein' Seel ("Bless the Lord") (1968)
04. Lady of the Night (1974)
05. The Hostage (1974)
06. Something's Missing (In My Life) Paul Jabara Feat Special Guest Donna Summer (1978)
07. Once Upon a Time (1977)
08. Shut Out Paul Jabara Feat Special Guest Donna Summer (1977)
09. Walk Away (1979)
10. Never Lose Your Sense of Humor Paul Jabara Feat Special Guest Donna Summer (1979)
11. Highway Runner (1982)
12. I Feel Love (Part 1) Special New Version Remix By Patrick Cowley (1982)
13. Romeo (1983)
14. When Love Cries (Single Version Remix) (1991)
15. I Will Go With You (Con Te Partiro) (Radio Edit) (1998)
16. Love Is the Healer (Eric Kupper's I Feel Healed 7" Mix) (1999)
17. I Got Your Love (Radio Edit) (2005)
18. Stamp Your Feet (Jason Nevins Radio Edit) (2008)
19. Fame (The Game) (Dave Aude Radio) (2008)
20. To Paris with Love (Mendy Radio Edit) (2010)
Код:
Exact Audio Copy V1.0 beta 6 from 9. April 2015
EAC extraction logfile from 5. September 2018, 9:11
Donna Summer / The Ultimate Collection - CD3 - To Remember
Used drive  : ATAPI   iHAS122   C   Adapter: 1  ID: 0
Read mode               : Secure
Utilize accurate stream : Yes
Defeat audio cache      : Yes
Make use of C2 pointers : No
Read offset correction                      : 6
Overread into Lead-In and Lead-Out          : No
Fill up missing offset samples with silence : Yes
Delete leading and trailing silent blocks   : No
Null samples used in CRC calculations       : Yes
Used interface                              : Native Win32 interface for Win NT & 2000
Used output format : Internal WAV Routines
Sample format      : 44.100 Hz; 16 Bit; Stereo
TOC of the extracted CD
     Track |   Start  |  Length  | Start sector | End sector
    ---------------------------------------------------------
        1  |  0:00.00 |  4:47.52 |         0    |    21576
        2  |  4:47.52 |  3:12.72 |     21577    |    36048
        3  |  8:00.49 |  2:45.70 |     36049    |    48493
        4  | 10:46.44 |  3:58.29 |     48494    |    66372
        5  | 14:44.73 |  4:17.42 |     66373    |    85689
        6  | 19:02.40 |  5:41.48 |     85690    |   111312
        7  | 24:44.13 |  4:17.08 |    111313    |   130595
        8  | 29:01.21 |  3:12.41 |    130596    |   145036
        9  | 32:13.62 |  4:31.25 |    145037    |   165386
       10  | 36:45.12 |  3:30.66 |    165387    |   181202
       11  | 40:16.03 |  3:28.16 |    181203    |   196818
       12  | 43:44.19 |  3:47.55 |    196819    |   213898
       13  | 47:31.74 |  3:18.46 |    213899    |   228794
       14  | 50:50.45 |  4:09.64 |    228795    |   247533
       15  | 55:00.34 |  4:04.05 |    247534    |   265838
       16  | 59:04.39 |  3:58.38 |    265839    |   283726
       17  | 63:03.02 |  3:58.00 |    283727    |   301576
       18  | 67:01.02 |  3:46.23 |    301577    |   318549
       19  | 70:47.25 |  3:48.43 |    318550    |   335692
       20  | 74:35.68 |  4:00.45 |    335693    |   353737
Range status and errors
Selected range
     Filename C:\Users\London\Desktop\Donna Summer - The Ultimate Collection - CD3 - To Remember.wav
     Peak level 94.4 %
     Extraction speed 3.8 X
     Range quality 100.0 %
     Test CRC C2E2B44A
     Copy CRC C2E2B44A
     Copy OK
No errors occurred
AccurateRip summary
Track  1  accurately ripped (confidence 15)  [EFC4F234]  (AR v2)
Track  2  accurately ripped (confidence 15)  [D8EDEC9D]  (AR v2)
Track  3  accurately ripped (confidence 15)  [28153F41]  (AR v2)
Track  4  accurately ripped (confidence 15)  [D3304935]  (AR v2)
Track  5  accurately ripped (confidence 15)  [CBA73844]  (AR v2)
Track  6  accurately ripped (confidence 15)  [F9ECE744]  (AR v2)
Track  7  accurately ripped (confidence 15)  [2BDC6534]  (AR v2)
Track  8  accurately ripped (confidence 15)  [AC2F0B61]  (AR v2)
Track  9  accurately ripped (confidence 15)  [58606EA5]  (AR v2)
Track 10  accurately ripped (confidence 15)  [0C9A85BD]  (AR v2)
Track 11  accurately ripped (confidence 15)  [FB721005]  (AR v2)
Track 12  accurately ripped (confidence 15)  [448A10CA]  (AR v2)
Track 13  accurately ripped (confidence 15)  [584BD0EC]  (AR v2)
Track 14  accurately ripped (confidence 15)  [84485F56]  (AR v2)
Track 15  accurately ripped (confidence 15)  [1DF8CEC0]  (AR v2)
Track 16  accurately ripped (confidence 15)  [B899FA1D]  (AR v2)
Track 17  accurately ripped (confidence 15)  [43DFA302]  (AR v2)
Track 18  accurately ripped (confidence 15)  [D8075D60]  (AR v2)
Track 19  accurately ripped (confidence 14)  [5AD4ECA7]  (AR v2)
Track 20  accurately ripped (confidence 14)  [497F5CB6]  (AR v2)
All tracks accurately ripped
End of status report
---- CUETools DB Plugin V2.1.6
[CTDB TOCID: MxV68zxkcaB5lm_weZTbCSfxUz0-] found
Submit result: MxV68zxkcaB5lm_weZTbCSfxUz0- has been confirmed
Track | CTDB Status
  1   | (34/36) Accurately ripped
  2   | (34/36) Accurately ripped
  3   | (34/36) Accurately ripped
  4   | (34/36) Accurately ripped
  5   | (34/36) Accurately ripped
  6   | (34/36) Accurately ripped
  7   | (34/36) Accurately ripped
  8   | (34/36) Accurately ripped
  9   | (34/36) Accurately ripped
 10   | (34/36) Accurately ripped
 11   | (34/36) Accurately ripped
 12   | (34/36) Accurately ripped
 13   | (34/36) Accurately ripped
 14   | (34/36) Accurately ripped
 15   | (34/36) Accurately ripped
 16   | (34/36) Accurately ripped
 17   | (34/36) Accurately ripped
 18   | (34/36) Accurately ripped
 19   | (33/36) Accurately ripped
 20   | (31/36) Accurately ripped
==== Log checksum 2EF17798EE207DEBCEA7ED30A3649807168B803D7809135B86990FA739B25AF3 ====
Код:
REM GENRE Disco
REM DATE 2016
REM DISCID 33126C14
REM COMMENT "ExactAudioCopy v1.0b6"
PERFORMER "Donna Summer"
TITLE "The Ultimate Collection - CD3 - To Remember"
FILE "Donna Summer - The Ultimate Collection - CD3 - To Remember.flac" WAVE
  TRACK 01 AUDIO
    TITLE "I Remember Yesterday"
    PERFORMER "Donna Summer"
    FLAGS DCP
    INDEX 01 00:00:00
  TRACK 02 AUDIO
    TITLE "Aquarius (Wasserman) (from Hair)"
    PERFORMER "Donna Summer"
    FLAGS DCP
    INDEX 00 04:46:16
    INDEX 01 04:47:52
  TRACK 03 AUDIO
    TITLE "Oh Segne Gott Mein' Seel (Bless The Lord) (from Godspell)"
    PERFORMER "Donna Summer"
    FLAGS DCP
    INDEX 00 07:58:53
    INDEX 01 08:00:49
  TRACK 04 AUDIO
    TITLE "Lady of the Night"
    PERFORMER "Donna Summer"
    FLAGS DCP
    INDEX 00 10:45:21
    INDEX 01 10:46:44
  TRACK 05 AUDIO
    TITLE "The Hostage"
    PERFORMER "Donna Summer"
    FLAGS DCP
    INDEX 00 14:43:63
    INDEX 01 14:44:73
  TRACK 06 AUDIO
    TITLE "Something's Missing (In My Life)"
    PERFORMER "Donna Summer"
    FLAGS DCP
    INDEX 00 19:01:51
    INDEX 01 19:02:40
  TRACK 07 AUDIO
    TITLE "Once Upon A Time"
    PERFORMER "Donna Summer"
    FLAGS DCP
    INDEX 00 24:42:13
    INDEX 01 24:44:13
  TRACK 08 AUDIO
    TITLE "Shut Out"
    PERFORMER "Paul Jabara feat. Donna Summer"
    FLAGS DCP
    INDEX 00 29:00:19
    INDEX 01 29:01:21
  TRACK 09 AUDIO
    TITLE "Walk Away"
    PERFORMER "Donna Summer"
    FLAGS DCP
    INDEX 00 32:12:17
    INDEX 01 32:13:62
  TRACK 10 AUDIO
    TITLE "Never Lose Your Sense Of Humour"
    PERFORMER "Paul Jabara feat. Donna Summer"
    FLAGS DCP
    INDEX 00 36:43:39
    INDEX 01 36:45:12
  TRACK 11 AUDIO
    TITLE "Highway Runner"
    PERFORMER "Donna Summer"
    FLAGS DCP
    INDEX 00 40:15:05
    INDEX 01 40:16:03
  TRACK 12 AUDIO
    TITLE "I Feel Love (Part 1) (Patrick Cowley Remix)"
    PERFORMER "Donna Summer"
    FLAGS DCP
    INDEX 00 43:43:23
    INDEX 01 43:44:19
  TRACK 13 AUDIO
    TITLE "Romeo"
    PERFORMER "Donna Summer"
    FLAGS DCP
    INDEX 00 47:31:25
    INDEX 01 47:31:74
  TRACK 14 AUDIO
    TITLE "When Love Cries (Single Version Remix)"
    PERFORMER "Donna Summer"
    FLAGS DCP
    INDEX 00 50:49:34
    INDEX 01 50:50:45
  TRACK 15 AUDIO
    TITLE "I Will Go With You (Con Te Partiro)"
    PERFORMER "Donna Summer"
    FLAGS DCP
    INDEX 00 54:59:42
    INDEX 01 55:00:34
  TRACK 16 AUDIO
    TITLE "Love Is The Healer [Eric Kupper's I Feel Healed 7 inch Mix] "
    PERFORMER "Donna Summer"
    FLAGS DCP
    INDEX 00 59:03:72
    INDEX 01 59:04:39
  TRACK 17 AUDIO
    TITLE "I Got Your Love (Radio Edit)"
    PERFORMER "Donna Summer"
    FLAGS DCP
    INDEX 00 63:02:17
    INDEX 01 63:03:02
  TRACK 18 AUDIO
    TITLE "Stamp Your Feet (Jason Nevins Radio Edit)"
    PERFORMER "Donna Summer"
    FLAGS DCP
    INDEX 00 67:00:38
    INDEX 01 67:01:02
  TRACK 19 AUDIO
    TITLE "Fame (The Game) (Dave Aude Radio Edit)"
    PERFORMER "Donna Summer"
    FLAGS DCP
    INDEX 00 70:46:33
    INDEX 01 70:47:25
  TRACK 20 AUDIO
    TITLE "To Paris With Love (Mendy Radio Edit)"
    PERFORMER "Donna Summer"
    FLAGS DCP
    INDEX 00 74:35:08
    INDEX 01 74:35:68
Код:
-----------------------
DON'T MODIFY THIS FILE
-----------------------
PERFORMER: auCDtect Task Manager, ver. 1.5.1RC4 build 1.5.1.5
Copyright (c) 2008-2010 y-soft. All rights reserved
[url=http://y-soft.org]http://y-soft.org[/url]
ANALYZER: auCDtect: CD records authenticity detector, version 0.8.2
Copyright (c) 2004 Oleg Berngardt. All rights reserved.
Copyright (c) 2004 Alexander Djourik. All rights reserved.
FILE: Donna Summer - The Ultimate Collection - CD3 - To Remember.flac
  Size: 571077308 Hash: 00BE37D26F31702AD3EE7EE566673C86 Accuracy: -m0
  Conclusion: CDDA 99%
  Signature: D87B6DCDA4CC8E4B09E6D9098D39925E43B79094
Код:
foobar2000 1.3.13 / Замер динамического диапазона (DR) 1.1.1
Дата отчёта:  2018-09-05 09:15:36
--------------------------------------------------------------------------------
Анализ:   Donna Summer / The Ultimate Collection - CD3 - To Remember
--------------------------------------------------------------------------------
DR         Пики         RMS           Продолжительность трека
--------------------------------------------------------------------------------
DR10      -0.50 дБ   -11.89 дБ      4:48 01-I Remember Yesterday
DR9       -0.50 дБ   -11.80 дБ      3:13 02-Aquarius (Wasserman) (from Hair)
DR8       -0.50 дБ    -9.69 дБ      2:46 03-Oh Segne Gott Mein' Seel (Bless The Lord) (from Godspell)
DR6       -3.80 дБ   -10.87 дБ      3:58 04-Lady of the Night
DR7       -2.00 дБ   -11.58 дБ      4:18 05-The Hostage
DR10      -0.50 дБ   -14.58 дБ      5:42 06-Something's Missing (In My Life)
DR9       -0.50 дБ   -10.56 дБ      4:17 07-Once Upon A Time
DR9       -0.50 дБ   -10.89 дБ      4:31 09-Walk Away
DR10      -0.50 дБ   -11.33 дБ      3:28 11-Highway Runner
DR7       -0.50 дБ    -9.10 дБ      3:48 12-I Feel Love (Part 1) (Patrick Cowley Remix)
DR9       -0.90 дБ   -11.14 дБ      3:19 13-Romeo
DR9       -0.50 дБ   -10.92 дБ      4:10 14-When Love Cries (Single Version Remix)
DR9       -0.50 дБ   -11.76 дБ      4:04 15-I Will Go With You (Con Te Partiro)
DR8       -2.00 дБ   -10.86 дБ      3:59 16-Love Is The Healer [Eric Kupper's I Feel Healed 7 inch Mix]
DR6       -3.20 дБ   -10.72 дБ      3:58 17-I Got Your Love (Radio Edit)
DR6       -3.80 дБ   -10.58 дБ      3:46 18-Stamp Your Feet (Jason Nevins Radio Edit)
DR6       -2.40 дБ    -9.89 дБ      3:49 19-Fame (The Game) (Dave Aude Radio Edit)
DR5       -2.90 дБ    -9.51 дБ      4:01 20-To Paris With Love (Mendy Radio Edit)
--------------------------------------------------------------------------------
Количество треков: 18
Реальные значения DR: DR8
Частота:   44100 Гц
Каналов:   2
Разрядность:   16
Битрейт:   969 кбит/с
Кодек:   FLAC
================================================================================
--------------------------------------------------------------------------------
Анализ:   Paul Jabara feat. Donna Summer / The Ultimate Collection - CD3 - To Remember
--------------------------------------------------------------------------------
DR         Пики         RMS           Продолжительность трека
--------------------------------------------------------------------------------
DR9       -0.50 дБ   -11.82 дБ      3:13 08-Shut Out
DR7       -0.50 дБ    -9.58 дБ      3:31 10-Never Lose Your Sense Of Humour
--------------------------------------------------------------------------------
Количество треков: 2
Реальные значения DR: DR8
Частота:   44100 Гц
Каналов:   2
Разрядность:   16
Битрейт:   969 кбит/с
Кодек:   FLAC
================================================================================
Доп. информация
Родилась Донна Саммер (ее настоящее имя ЛаДонна Андре Гейнс) в Бостоне в многодетной семье. С детства решила, что будет певицей. В 8 лет поступила в церковный хор, где пела несколько лет. В подростковом возрасте ее музыкальные предпочтения резко изменились. Донна бросила хор и стала вокалисткой рок-группы "Crow". Она была единственной девушкой и единственной чернокожей в истории коллектива. Донна никогда не была примерной ученицей. Школу она в итоге бросила ради музыкальной карьеры. Вместо экзаменов девушка прошла прослушивание в модный клуб "Бостонский психоделический супермаркет".
В 18 лет девушка покинула Бостон и отправилась в Нью-Йорк. Там она прошла кастинг на участие в бродвейском шоу "Hairs". Ей досталась партия в немецкой постановке мюзикла. Шоу стало хитом Бродвея. Через год Донну пригласили в европейскую труппу мюзикла. Окончательное решение о переезде на другой континент девушка приняла из-за нарастающих националистических настроений в США. DONNA SUMMER - I feel love (1977) Видео не работает? Донна начала выступать при Венской опере. Параллельно подрабатывала моделью и бэк-вокалисткой. В этот период она познакомилась с продюсером Джорджио Мородером и его партнером Питом Беллотом. Донна подписала с ними контракт, и вскоре выпустила свой первый сингл «The Hostage». Он сразу попал в европейские музыкальные чаты и даже стал хитом во Франции. Сложности возникли с покорением американского рынка. В США в то время были популярны кантри-мотивы, и диско-фолк эксперименты Донны Саммер сначала не прижились.
Все изменилось после выхода песни «Love to love you baby». Донна долго сомневалась по поводу текста, не понимала, как лучше его исполнить. В итоге она погасила в студии свет и представила, что поет для своего любимого мужчины. Этот низкий эротичный голос сделал ее супер-звездой. Запись песни попала к владельцу американской звукозаписывающей корпорации Нилу Богарту. Он был под таким впечатлением от исполнения, что на одной из своих вечеринок крутил только эту песню.
В США певица вернулась знаменитой. Альбом «Love to love you baby» стал золотым, а Донна Саммер признана королевой диско – теперь одного из самых популярных музыкальных направлений.
Каждый новый альбом бил рекорды предыдущего. Донну Саммер называли живым классиком современной музыки. Певица получила десятки наград. В 1979 году Донне вручили Оскар за песню «Last dance» для мюзикла «Волосы». В этом же году Донна Саммер исполнила легендарную песню «No More Tears» в дуэте с Барбарой Стрейзанд.
Песня «I feel love» 1977 года считается знаковой не только для исполнительницы, но и для истории мировой музыки. Композиция была записана при помощи одних только синтезаторов. Критики до сих пор называют эту песню предвестником техно-революции 90-ых годов.
Донна Саммер стала первой в истории певицей, чьи композиции 4 раза за год поднимались на вершину хит-парадов. До си пор не побит ее рекорд по количеству выпущенных подряд альбомов, которые возглавляли музыкальные чаты. За свою карьеру Донна Саммер продала 130 миллионов копий альбомов, 7 раз ездила в мировые турне.
В 1980 году Донна Саммер записала свой последний альбом в стиле диско «The Wanderer». К тому времени культура диско уже не так популярна.
Со сцены Донна Саммер не ушла. Она продолжила работу над новыми песнями в стиле соул и софт-рока. Альбомы были успешными. Но дотянуться до прежних вершин певица не смогла. Для всего мира она так и осталась легендой диско. Параллельно с новыми альбомами выходили ремиксы старых хитов Донны и сборники лучших песен.
На 17 лет певица исчезла с большой сцены. Выступала по клубам и частным вечеринкам. Вернулась она в середине двухтысячных, выпустив новый полностью уникальный альбом.
Донна продолжала работать до самой смерти. Последний альбом она так и не успела закончить.
Со своим первым мужем Донна познакомилась, когда жила в Европе. Они встретились в Швейцарии. Хельмут был австрийским актером. В браке у них родилась дочь Мими. Семейное счастье продлилось всего 2 года. Донна не хотела оставлять сцену и сидеть дома. Из-за этого певица развелась с мужем.
В 1980 Донна вышла замуж во второй раз. Ее избранником стал композитор Брюс Судано. Певица родила двух детей. Всего у Донны было 3 дочери и 4 внука.
Донна Саммер умерла 17 мая 2012 года от рака легких.
Перед смертью Донна Саммер упорно отказывала признавать, что рак легких вызван курением. По мнению певицы, она заболела во время теракта 11 сентября 2001 года. Она винила во всем пепел, пыль и токсины, которые разлетелись по округе после взрыва башен-близнецов. По словам родственников, после 11 сентября Донна маниакально боялась пыли и всегда носила с собой дезинфицирующие средства.
https://uznayvse.ru/znamenitosti/biografiya-donna-sammer.html
https://en.wikipedia.org/wiki/Donna_Summer
http://donnasummer.com
загрузка...
Правила, инструкции, FAQ!!!
Торрент  Добавлен [16 сен 2018, 18:48] Скачать торрент Магнет ссылка
Скачать торрент
[ Размер 18.9 КБ / Просмотров 0 ]

Статус
Проверен 
 
Размер  1.66 ГБ
Приватный: Нет (DHT включён)
.torrent скачан  0
Как залить торрент? | Как скачать Torrent? | Ошибка в торренте? Качайте магнет  


     Отправить личное сообщение
   
Страница 1 из 1
Показать сообщения за:  Поле сортировки  
Начать новую тему Ответить на тему

   Похожие торренты   Автор   Ответы   Просмотры   Последнее сообщение 
В этой теме нет новых непрочитанных сообщений. Скачать торрент Проверен (Disco, Dance, Soul, R&B) [CD] Donna Summer - The Summer Collection: Greatest Hits - 1985, FLAC (image+.cue), lossless

в форуме Зарубежная музыка, Размер: 266.64 МБ, Здоровье: 100%

Anonymous

0
4|2

83
0

02 окт 2017, 22:37

Anonymous Перейти к последнему сообщению

В этой теме нет новых непрочитанных сообщений. Скачать торрент Проверен (Disco, Funk, Soul) [CD] Donna Summer - Crayons (Reissue Deluxe Edition) (3-CD) - 2016, FLAC (tracks), lossless

в форуме Зарубежная музыка, Размер: 1.39 ГБ, Здоровье: 100%

Anonymous

0
5|0

24
1

03 окт 2017, 23:26

Anonymous Перейти к последнему сообщению

В этой теме нет новых непрочитанных сообщений. Скачать торрент Проверен (Electronic, Funk, Soul, Disco) [CD] Donna Summer - The Summer Collection (Greatest Hits) - 1985, FLAC (image+.cue), lossless

в форуме Зарубежная музыка, Размер: 311.84 МБ, Здоровье: 100%

Anonymous

0
8|3

87
0

03 окт 2017, 23:25

Anonymous Перейти к последнему сообщению

В этой теме нет новых непрочитанных сообщений. Скачать торрент Проверен [TR24][OF] Donna Summer - The Dance Collection: A Compilation Of 12" Singles - 1987/2013, FLAC (24/192), (Soul/Funk/R&B/Disco)

в форуме Hi-Res stereo (Поп), Размер: 3.15 ГБ, Здоровье: 100%

Anonymous

0
47|45

103
7

01 июл 2017, 08:34

Anonymous Перейти к последнему сообщению

В этой теме нет новых непрочитанных сообщений. Скачать торрент Проверен (Disco, Funk, Soul) [CD] Donna Summer - The Best Of Donna Summer - 2003, FLAC (tracks+.cue), lossless

в форуме Зарубежная музыка, Размер: 351.98 МБ, Здоровье: 100%

Anonymous

0
28|7

114
7

07 окт 2017, 16:37

Anonymous Перейти к последнему сообщению



Сейчас этот форум просматривают: нет зарегистрированных пользователей и гости: 0


Вы не можете начинать темы
Вы не можете отвечать на сообщения
Вы не можете редактировать свои сообщения
Вы не можете удалять свои сообщения
Вы не можете добавлять вложения

Перейти:  
Ресурс не предоставляет электронные версии произведений, а занимается лишь коллекционированием и каталогизацией ссылок, присылаемых и публикуемых на форуме нашими читателями. Если вы являетесь правообладателем какого-либо представленного материала и не желаете чтобы ссылка на него находилась в нашем каталоге, свяжитесь с нами и мы незамедлительно удалим её. Файлы для обмена на трекере предоставлены пользователями сайта, и администрация не несёт ответственности за их содержание. Просьба не заливать файлы, защищенные авторскими правами, а также файлы нелегального содержания!
cron