На всех торрентах на трекере установлена скидка на скачивание в размере 100 процентов(а).
 Возможность скачивания торрента НЕ зависит от ограничений при низком ратио, низком аплоаде, требуемом ратио или требуемом аплоаде.


Начать новую тему Ответить на тему
Статистика раздачи
Размер: 298.65 МБ | Добавлен: 16 сен 2018, 18:47 | Скачали: 0
Сидеров: 11  [0 байт/сек]    Личеров: 4  [0 байт/сек]
Пред. тема | След. тема 

Автор
Сообщение

СообщениеДобавлено: 16 сен 2018, 18:47 

Ответить с цитатой 

Neoton Familia / Szerencsejatek
Жанр: Disco
Носитель: CD
Страна-производитель диска (релиза): Hungary
Год издания: 1982/1998
Издатель (лейбл): Gong
Номер по каталогу: HCD 17719
Страна исполнителя (группы): Hungary
Аудиокодек: FLAC (*.flac)
Тип рипа: image+.cue
Битрейт аудио: lossless
Продолжительность: 00:45:37
Источник (релизер): WiktorMVV
Наличие сканов в содержимом раздачи: да
Треклист:
Neoton Familia - Szerencsejatek
01. Monte Carlo [03:50]
02. Eszterlanc [03:51]
03. Tini-dal [03:33]
04. Napfogyatkozas [03:49]
05. Uveghaz [04:16]
06. Kell, Hogy Varj! [03:50]
07. Nem Szallunk Ki A Hajobol [03:58]
08. Rongyszonyeg [03:52]
09. Jojj El! [03:25]
10. Szarszo [03:01]
11. Születesnap [03:34]
12. Szerencsejatek [04:31]
Код:
Exact Audio Copy V1.0 beta 3 from 29. August 2011
Отчёт EAC об извлечении, выполненном 31. августа 2018, 9:42
Neoton Familia / Szerencsejatek
Дисковод: Optiarc DVD RW AD-7280S   Adapter: 1  ID: 0
Режим чтения                 : Достоверность
Использование точного потока : Да
Отключение кэша аудио        : Да
Использование указателей C2  : Нет
Коррекция смещения при чтении                     : 48
Способность читать области Lead-in и Lead-out     : Нет
Заполнение пропущенных сэмплов тишиной            : Да
Удаление блоков с тишиной в начале и конце        : Нет
При вычислениях CRC использовались нулевые сэмплы : Да
Интерфейс                                         : Встроенный Win32-интерфейс для Win NT/2000
Выходной формат          : Пользовательский кодировщик
Выбранный битрейт        : 768 kBit/s
Качество                 : Высокий
Добавление ID3-тега      : Нет
Утилита сжатия           : C:\Program Files (x86)\Exact Audio Copy\FLAC\FLAC.EXE
Дополнительные параметры : -8 -V -T "ARTIST=%artist%" -T "TITLE=%title%" -T "ALBUM=%albumtitle%" -T "DATE=%year%" -T "TRACKNUMBER=%tracknr%" -T "GENRE=%genre%" -T "COMMENT=%comment%" -T "BAND=%albuminterpret%" -T "ALBUMARTIST=%albuminterpret%" -T "COMPOSER=%composer%" %haslyrics%--tag-from-file=LYRICS="%lyricsfile%"%haslyrics% -T "DISCNUMBER=%cdnumber%" -T "TOTALDISCS=%totalcds%" -T "TOTALTRACKS=%numtracks%" %hascover%--picture="%coverfile%"%hascover% %source% -o %dest%
TOC извлечённого CD
     Трек |   Старт  | Длительность | Начальный сектор | Конечный сектор
    ---------------------------------------------------------------------
       1  |  0:00.00 |    3:50.07   |           0      |      17256
       2  |  3:50.07 |    3:51.65   |       17257      |      34646
       3  |  7:41.72 |    3:33.53   |       34647      |      50674
       4  | 11:15.50 |    3:49.04   |       50675      |      67853
       5  | 15:04.54 |    4:16.65   |       67854      |      87118
       6  | 19:21.44 |    3:50.32   |       87119      |     104400
       7  | 23:12.01 |    3:58.30   |      104401      |     122280
       8  | 27:10.31 |    3:52.32   |      122281      |     139712
       9  | 31:02.63 |    3:25.74   |      139713      |     155161
      10  | 34:28.62 |    3:01.44   |      155162      |     168780
      11  | 37:30.31 |    3:34.67   |      168781      |     184897
      12  | 41:05.23 |    4:31.67   |      184898      |     205289
Характеристики диапазона извлечения и сообщения об ошибках
Выбранный диапазон
     Имя файла D:\РАЗДАЧИ\Neoton Familia-Szerencsejatek (1982-1998)\Neoton Familia - Szerencsejatek.wav
     Пиковый уровень 100.0 %
     Скорость извлечения 7.8 X
     Качество диапазона 100.0 %
     CRC теста 7F94C4E2
     CRC копии 7F94C4E2
     Копирование... OK
Ошибок не произошло
AccurateRip: сводка
Трек  1  точность не определена (достоверность 3)  [6219AB37], AccurateRip вернул [F23BD587]  (AR v2)
Трек  2  точность не определена (достоверность 3)  [19E6DF34], AccurateRip вернул [2074A41A]  (AR v2)
Трек  3  точность не определена (достоверность 3)  [74DE9F36], AccurateRip вернул [77E2BE12]  (AR v2)
Трек  4  точность не определена (достоверность 3)  [3CADEAE2], AccurateRip вернул [13A4D5A1]  (AR v2)
Трек  5  точность не определена (достоверность 3)  [963442BB], AccurateRip вернул [6AAD2342]  (AR v2)
Трек  6  точность не определена (достоверность 3)  [53E98B7A], AccurateRip вернул [7DF445C1]  (AR v2)
Трек  7  точность не определена (достоверность 3)  [25BBA023], AccurateRip вернул [C64FE331]  (AR v2)
Трек  8  точность не определена (достоверность 3)  [B64463D6], AccurateRip вернул [1FBCE77D]  (AR v2)
Трек  9  точность не определена (достоверность 3)  [D608B9A7], AccurateRip вернул [DB45A8A7]  (AR v2)
Трек 10  точность не определена (достоверность 3)  [7EB5793A], AccurateRip вернул [319622EC]  (AR v2)
Трек 11  точность не определена (достоверность 3)  [ABE0F178], AccurateRip вернул [E8D16DEA]  (AR v2)
Трек 12  точность не определена (достоверность 3)  [83469E26], AccurateRip вернул [6F8EF861]  (AR v2)
Ни один трек не прошёл проверки на точность
В вашей базе может быть иной вариант штамповки диска
Конец отчёта
==== Контрольная сумма отчёта 224D073ECFC69350BE51CD5786CAB5CE814A129DF8D39322AFE8ECF31CD74147 ====
загрузка...
Правила, инструкции, FAQ!!!
Торрент  Добавлен [16 сен 2018, 18:47] Скачать торрент Магнет ссылка
Скачать торрент
[ Размер 12.6 КБ / Просмотров 1 ]

Статус
Проверен 
 
Размер  298.65 МБ
Приватный: Нет (DHT включён)
.torrent скачан  0
Как залить торрент? | Как скачать Torrent? | Ошибка в торренте? Качайте магнет  


     Отправить личное сообщение
   
Страница 1 из 1
Показать сообщения за:  Поле сортировки  
Начать новую тему Ответить на тему

   Похожие торренты   Автор   Ответы   Просмотры   Последнее сообщение 
В этой теме нет новых непрочитанных сообщений. Скачать торрент Проверен (Disco) [CD] Neoton Familia - Neoton Familia - 1983/1998, FLAC (image+.cue), lossless

в форуме Зарубежная музыка, Размер: 211.5 МБ, Здоровье: 100%

Anonymous

0
1|1

9
0

16 сен 2018, 18:47

Anonymous Перейти к последнему сообщению

В этой теме нет новых непрочитанных сообщений. Скачать торрент Проверен (Electronic, Pop, Vocal, Disco, Ballad) [CD] Newton Family (Neoton Familia) - Neoton Familia - 2005, FLAC (tracks+.cue), lossless

в форуме Зарубежная музыка, Размер: 1.9 ГБ, Здоровье: 100%

Anonymous

0
35|2

32
2

03 окт 2017, 23:22

Anonymous Перейти к последнему сообщению

В этой теме нет новых непрочитанных сообщений. Скачать торрент Проверен (Disco, Pop) Neoton Familia - The Best Of Neoton Familia - 1996, APE (image+.cue), lossless

в форуме Зарубежная музыка, Размер: 407.16 МБ, Здоровье: 100%

Anonymous

0
4|1

39
0

02 окт 2017, 22:58

Anonymous Перейти к последнему сообщению

В этой теме нет новых непрочитанных сообщений. Скачать торрент Проверен (Disco) Neoton Familia - Neoton Disco - 1978, APE (image+.cue), lossless

в форуме Зарубежная музыка, Размер: 226.16 МБ, Здоровье: 100%

Anonymous

0
4|1

18
0

07 окт 2017, 16:48

Anonymous Перейти к последнему сообщению

В этой теме нет новых непрочитанных сообщений. Скачать торрент Проверен (Disco) [LP][24/192] Newton Family (Neoton Familia) - Marathon - 1982, FLAC (tracks+.cue)

в форуме Зарубежная поп-музыка (оцифровки), Размер: 1.43 ГБ, Здоровье: 100%

Anonymous

0
3|1

18
0

20 янв 2018, 08:40

Anonymous Перейти к последнему сообщению



Сейчас этот форум просматривают: нет зарегистрированных пользователей и гости: 0


Вы не можете начинать темы
Вы не можете отвечать на сообщения
Вы не можете редактировать свои сообщения
Вы не можете удалять свои сообщения
Вы не можете добавлять вложения

Перейти:  
Ресурс не предоставляет электронные версии произведений, а занимается лишь коллекционированием и каталогизацией ссылок, присылаемых и публикуемых на форуме нашими читателями. Если вы являетесь правообладателем какого-либо представленного материала и не желаете чтобы ссылка на него находилась в нашем каталоге, свяжитесь с нами и мы незамедлительно удалим её. Файлы для обмена на трекере предоставлены пользователями сайта, и администрация не несёт ответственности за их содержание. Просьба не заливать файлы, защищенные авторскими правами, а также файлы нелегального содержания!
cron