На всех торрентах на трекере установлена скидка на скачивание в размере 100 процентов(а).
 Возможность скачивания торрента НЕ зависит от ограничений при низком ратио, низком аплоаде, требуемом ратио или требуемом аплоаде.


Начать новую тему Ответить на тему
Статистика раздачи
Размер: 211.5 МБ | Добавлен: 16 сен 2018, 18:47 | Скачали: 0
Сидеров: 1  [0 байт/сек]    Личеров: 1  [0 байт/сек]
Пред. тема | След. тема 

Автор
Сообщение

СообщениеДобавлено: 16 сен 2018, 18:47 

Ответить с цитатой 

Neoton Familia / Neoton Familia
Жанр: Disco
Носитель: CD
Страна-производитель диска (релиза): Hungary
Год издания: 1983/1998
Издатель (лейбл): Hungaroton
Номер по каталогу: No
Страна исполнителя (группы): Hungary
Аудиокодек: FLAC (*.flac)
Тип рипа: image+.cue
Битрейт аудио: lossless
Продолжительность: 00:39:02
Источник (релизер): WiktorMVV
Наличие сканов в содержимом раздачи: да
Треклист:
Neoton Familia - Neoton Familia
01. Pago Pago [04:29]
02. Holnap Hajnalig [04:06]
03. Margareta [04:31]
04. A Tigris [03:36]
05. Egy Kis Nyugalmat [03:54]
06. Mamma Mia [03:24]
07. Hátizsak-Dal [03:38]
08. Hallo, Mr. Yutani [03:35]
09. Szeretek Ugialni [04:07]
10. Szalad A Lany [03:39]
Код:
Exact Audio Copy V1.0 beta 3 from 29. August 2011
Отчёт EAC об извлечении, выполненном 31. августа 2018, 13:07
Neoton Familia / Neoton Familia
Дисковод: Optiarc DVD RW AD-7280S   Adapter: 1  ID: 0
Режим чтения                 : Достоверность
Использование точного потока : Да
Отключение кэша аудио        : Да
Использование указателей C2  : Нет
Коррекция смещения при чтении                     : 48
Способность читать области Lead-in и Lead-out     : Нет
Заполнение пропущенных сэмплов тишиной            : Да
Удаление блоков с тишиной в начале и конце        : Нет
При вычислениях CRC использовались нулевые сэмплы : Да
Интерфейс                                         : Встроенный Win32-интерфейс для Win NT/2000
Выходной формат          : Пользовательский кодировщик
Выбранный битрейт        : 768 kBit/s
Качество                 : Высокий
Добавление ID3-тега      : Нет
Утилита сжатия           : C:\Program Files (x86)\Exact Audio Copy\FLAC\FLAC.EXE
Дополнительные параметры : -8 -V -T "ARTIST=%artist%" -T "TITLE=%title%" -T "ALBUM=%albumtitle%" -T "DATE=%year%" -T "TRACKNUMBER=%tracknr%" -T "GENRE=%genre%" -T "COMMENT=%comment%" -T "BAND=%albuminterpret%" -T "ALBUMARTIST=%albuminterpret%" -T "COMPOSER=%composer%" %haslyrics%--tag-from-file=LYRICS="%lyricsfile%"%haslyrics% -T "DISCNUMBER=%cdnumber%" -T "TOTALDISCS=%totalcds%" -T "TOTALTRACKS=%numtracks%" %hascover%--picture="%coverfile%"%hascover% %source% -o %dest%
TOC извлечённого CD
     Трек |   Старт  | Длительность | Начальный сектор | Конечный сектор
    ---------------------------------------------------------------------
       1  |  0:00.00 |    4:29.48   |           0      |      20222
       2  |  4:29.48 |    4:06.44   |       20223      |      38716
       3  |  8:36.17 |    4:31.09   |       38717      |      59050
       4  | 13:07.26 |    3:36.51   |       59051      |      75301
       5  | 16:44.02 |    3:54.28   |       75302      |      92879
       6  | 20:38.30 |    3:24.04   |       92880      |     108183
       7  | 24:02.34 |    3:38.05   |      108184      |     124538
       8  | 27:40.39 |    3:35.09   |      124539      |     140672
       9  | 31:15.48 |    4:07.45   |      140673      |     159242
      10  | 35:23.18 |    3:39.09   |      159243      |     175676
Характеристики диапазона извлечения и сообщения об ошибках
Выбранный диапазон
     Имя файла D:\РАЗДАЧИ\Neoton Familia-Neoton Familia (1983-1998)\Neoton Familia - Neoton Familia.wav
     Пиковый уровень 59.0 %
     Скорость извлечения 3.9 X
     Качество диапазона 100.0 %
     CRC теста 841FD0F3
     CRC копии 841FD0F3
     Копирование... OK
Ошибок не произошло
AccurateRip: сводка
Трек  1  отсутствует в базе данных
Трек  2  отсутствует в базе данных
Трек  3  отсутствует в базе данных
Трек  4  отсутствует в базе данных
Трек  5  отсутствует в базе данных
Трек  6  отсутствует в базе данных
Трек  7  отсутствует в базе данных
Трек  8  отсутствует в базе данных
Трек  9  отсутствует в базе данных
Трек 10  отсутствует в базе данных
Ни одного трека нет в базе AccurateRip
Конец отчёта
==== Контрольная сумма отчёта F4122F03A381AD8B9DB3B5469FCD30901511B045FAC4C6C854B7D815AEEA262F ====
загрузка...
Правила, инструкции, FAQ!!!
Торрент  Добавлен [16 сен 2018, 18:47] Скачать торрент Магнет ссылка
Скачать торрент
[ Размер 17.46 КБ / Просмотров 2 ]

Статус
Проверен 
 
Размер  211.5 МБ
Приватный: Нет (DHT включён)
.torrent скачан  0
Как залить торрент? | Как скачать Torrent? | Ошибка в торренте? Качайте магнет  


     Отправить личное сообщение
   
Страница 1 из 1
Показать сообщения за:  Поле сортировки  
Начать новую тему Ответить на тему

   Похожие торренты   Автор   Ответы   Просмотры   Последнее сообщение 
В этой теме нет новых непрочитанных сообщений. Скачать торрент Проверен (Electronic, Pop, Vocal, Disco, Ballad) [CD] Newton Family (Neoton Familia) - Neoton Familia - 2005, FLAC (tracks+.cue), lossless

в форуме Зарубежная музыка, Размер: 1.9 ГБ, Здоровье: 100%

Anonymous

0
35|2

32
2

03 окт 2017, 23:22

Anonymous Перейти к последнему сообщению

В этой теме нет новых непрочитанных сообщений. Скачать торрент Проверен (Disco, Pop) Neoton Familia - The Best Of Neoton Familia - 1996, APE (image+.cue), lossless

в форуме Зарубежная музыка, Размер: 407.16 МБ, Здоровье: 100%

Anonymous

0
4|1

39
0

02 окт 2017, 22:58

Anonymous Перейти к последнему сообщению

В этой теме нет новых непрочитанных сообщений. Скачать торрент Проверен (Disco, Pop) Neoton (Neoton Familia, Newton Family) - 5 Album's (1985-2005), APE (tracks), lossless

в форуме Зарубежная музыка, Размер: 1.57 ГБ, Здоровье: 100%

Anonymous

0
40|0

76
0

07 окт 2017, 16:48

Anonymous Перейти к последнему сообщению

В этой теме нет новых непрочитанных сообщений. Скачать торрент Проверен (Disco) [LP] [16/44,1] Neoton Familia - Aerobic - 1983, APE (image+.cue), lossless

в форуме Зарубежная поп-музыка (оцифровки), Размер: 252.24 МБ, Здоровье: 0%

Anonymous

0
0|0

1
0

21 янв 2018, 00:40

Anonymous Перейти к последнему сообщению

В этой теме нет новых непрочитанных сообщений. Скачать торрент Проверен (Disco) Neoton Familia - Neoton Disco - 1978, APE (image+.cue), lossless

в форуме Зарубежная музыка, Размер: 226.16 МБ, Здоровье: 100%

Anonymous

0
4|1

18
0

07 окт 2017, 16:48

Anonymous Перейти к последнему сообщению



Сейчас этот форум просматривают: нет зарегистрированных пользователей и гости: 0


Вы не можете начинать темы
Вы не можете отвечать на сообщения
Вы не можете редактировать свои сообщения
Вы не можете удалять свои сообщения
Вы не можете добавлять вложения

Перейти:  
Ресурс не предоставляет электронные версии произведений, а занимается лишь коллекционированием и каталогизацией ссылок, присылаемых и публикуемых на форуме нашими читателями. Если вы являетесь правообладателем какого-либо представленного материала и не желаете чтобы ссылка на него находилась в нашем каталоге, свяжитесь с нами и мы незамедлительно удалим её. Файлы для обмена на трекере предоставлены пользователями сайта, и администрация не несёт ответственности за их содержание. Просьба не заливать файлы, защищенные авторскими правами, а также файлы нелегального содержания!
cron