На всех торрентах на трекере установлена скидка на скачивание в размере 100 процентов(а).
 Возможность скачивания торрента НЕ зависит от ограничений при низком ратио, низком аплоаде, требуемом ратио или требуемом аплоаде.


Начать новую тему Ответить на тему
Статистика раздачи
Размер: 3.8 ГБ | Добавлен: 21 окт 2014, 20:57 | Скачали: 1
Сидеров: 19  [0 байт/сек]    Личеров: 5  [0 байт/сек]
Пред. тема | След. тема 

Автор
Сообщение

СообщениеДобавлено: 21 окт 2014, 20:57 

Ответить с цитатой 

Детский сад (2 серии)

Жанр: драма
Год выпуска: 1983
Продолжительность: 01:29:00 + 01:09:37

Режиссёр: Евгений Евтушенко

В ролях: Сережа Гусак, Серёжа Бобровский, Галина Стаханова, Светлана Евстратова, Николай Караченцов, Елена Евтушенко, Клаус Мария Брандауэр

Описание: Фильм-воспоминание советского поэта Евгения Евтушенко о своем военном детстве, когда он один добирался до сибирской станции Зима, где его ждала бабушка. Путь оказался необыкновенно долгим, холодным, голодным и злым.


Качество видео: DVB
Формат видео: MPEG-PS

Видео: MPEG Video, 720(768)x576 (4:3), 25,000 кадров/сек, 3185 Кбит/сек
Аудио: MPEG Audio, 48,0 КГц, 192 Кбит/сек, 2 канала
Общее
Полное имя : D:\Torrent\ДЕТСКИЙ САД\ДЕТСКИЙ САД 1 (Дом Кино).mpg
Формат : MPEG-PS
Размер файла : 2,14 Гбайт
Продолжительность : 1 ч. 29 м.
Режим общего битрейта : Переменный
Общий поток : 3445 Кбит/сек

Видео
Идентификатор : 224 (0xE0)
Формат : MPEG Video
Версия формата : Version 2
Профиль формата : Main@Main
Параметр BVOP формата : Да
Параметр матрицы формата : Выборочная
Параметр GOP формата : M=3, N=12
Продолжительность : 1 ч. 29 м.
Вид битрейта : Переменный
Битрейт : 3185 Кбит/сек
Максимальный битрейт : 5000 Кбит/сек
Ширина : 720 пикселей
Высота : 576 пикселей
Соотношение сторон : 4:3
Частота кадров : 25,000 кадров/сек
Стандарт вещания : PAL
Цветовое пространство : YUV
Субдискретизация насыщенности : 4:2:0
Битовая глубина : 8 бит
Тип развёртки : Чересстрочная
Порядок развёртки : Верхнее поле первое
Метод сжатия : С потерями
Бит/(Пиксели*Кадры) : 0.307
Временной код первого кадра : 00:00:00:00
Оригинал временного кода : Group of pictures header
Размер потока : 1,98 Гбайт (92%)

Аудио
Идентификатор : 192 (0xC0)
Формат : MPEG Audio
Версия формата : Version 1
Профиль формата : Layer 2
Продолжительность : 1 ч. 29 м.
Вид битрейта : Постоянный
Битрейт : 192 Кбит/сек
Каналы : 2 канала
Частота : 48,0 КГц
Метод сжатия : С потерями
Задержка видео : 10 мс.
Размер потока : 122 Мбайт (6%)

Общее
Полное имя : D:\Torrent\ДЕТСКИЙ САД\ДЕТСКИЙ САД 2 (Дом Кино).mpg
Формат : MPEG-PS
Размер файла : 1,66 Гбайт
Продолжительность : 1 ч. 9 м.
Режим общего битрейта : Переменный
Общий поток : 3416 Кбит/сек

Видео
Идентификатор : 224 (0xE0)
Формат : MPEG Video
Версия формата : Version 2
Профиль формата : Main@Main
Параметр BVOP формата : Да
Параметр матрицы формата : Выборочная
Параметр GOP формата : M=3, N=12
Продолжительность : 1 ч. 9 м.
Вид битрейта : Переменный
Битрейт : 3156 Кбит/сек
Максимальный битрейт : 5000 Кбит/сек
Ширина : 720 пикселей
Высота : 576 пикселей
Соотношение сторон : 4:3
Частота кадров : 25,000 кадров/сек
Стандарт вещания : PAL
Цветовое пространство : YUV
Субдискретизация насыщенности : 4:2:0
Битовая глубина : 8 бит
Тип развёртки : Чересстрочная
Порядок развёртки : Верхнее поле первое
Метод сжатия : С потерями
Бит/(Пиксели*Кадры) : 0.304
Временной код первого кадра : 00:00:00:00
Оригинал временного кода : Group of pictures header
Размер потока : 1,54 Гбайт (92%)

Аудио
Идентификатор : 192 (0xC0)
Формат : MPEG Audio
Версия формата : Version 1
Профиль формата : Layer 2
Продолжительность : 1 ч. 9 м.
Вид битрейта : Постоянный
Битрейт : 192 Кбит/сек
Каналы : 2 канала
Частота : 48,0 КГц
Метод сжатия : С потерями
Задержка видео : 2 мс.
Размер потока : 95,6 Мбайт (6%)
загрузка...
Правила, инструкции, FAQ!!!
Торрент  Добавлен [21 окт 2014, 20:57] Скачать торрент Магнет ссылка
Скачать торрент
[ Размер 19.64 КБ / Просмотров 49 ]

Статус
Проверен 
 
Размер  3.8 ГБ
Приватный: Нет (DHT включён)
.torrent скачан  1
Как залить торрент? | Как скачать Torrent? | Ошибка в торренте? Качайте магнет  


     Отправить личное сообщение
   
Страница 1 из 1
Показать сообщения за:  Поле сортировки  
Начать новую тему Ответить на тему

   Похожие торренты   Автор   Ответы   Просмотры   Последнее сообщение 
В этой теме нет новых непрочитанных сообщений. Скачать торрент Проверен Евгений Евтушенко - Стихотворения [Михаил Задорнов, Евгений Евтушенко, 2008, 128 kbps]

в форуме Современная проза и поэзия, Размер: 56.8 МБ, Здоровье: 100%

Anonymous

0
146|6

92
4

10 сен 2016, 10:43

Anonymous Перейти к последнему сообщению

В этой теме нет новых непрочитанных сообщений. Скачать торрент Проверен Читает Евгений Евтушенко [Евгений Евтушенко, 1987, 128-320 kbps CBR]

в форуме Современная проза и поэзия, Размер: 634.78 МБ, Здоровье: 100%

Anonymous

0
230|7

348
7

10 сен 2016, 10:57

Anonymous Перейти к последнему сообщению

В этой теме нет новых непрочитанных сообщений. Скачать торрент Проверен Евгений Евтушенко - Ягодные места [Елена Евтушенко, 2006, 128 кбит/с]

в форуме Российская фантастика, фэнтези, мистика, ужасы, фанфики, Размер: 949.01 МБ, Здоровье: 100%

Anonymous

0
124|0

45
1

10 дек 2016, 17:22

Anonymous Перейти к последнему сообщению

В этой теме нет новых непрочитанных сообщений. Скачать торрент Проверен Евтушенко Евгений - Ягодные места [Евтушенко Елена, 2006, Современная проза, 128 kbps]

в форуме Аудиокниги (AAC, ALAC), Размер: 872.79 МБ, Здоровье: 100%

Anonymous

0
164|5

138
4

28 авг 2016, 16:01

Anonymous Перейти к последнему сообщению

В этой теме нет новых непрочитанных сообщений. Скачать торрент Проверен Евгений Александрович Евтушенко - Собрание сочинений (13 произведений) [1955-1982, FB2, PDF, RTF, RUS]

в форуме Русская литература, Размер: 24.28 МБ, Здоровье: 100%

Anonymous

0
469|82

817
20

08 сен 2016, 00:10

Anonymous Перейти к последнему сообщению



Сейчас этот форум просматривают: нет зарегистрированных пользователей и гости: 0


Вы не можете начинать темы
Вы не можете отвечать на сообщения
Вы не можете редактировать свои сообщения
Вы не можете удалять свои сообщения
Вы не можете добавлять вложения

Перейти:  
Ресурс не предоставляет электронные версии произведений, а занимается лишь коллекционированием и каталогизацией ссылок, присылаемых и публикуемых на форуме нашими читателями. Если вы являетесь правообладателем какого-либо представленного материала и не желаете чтобы ссылка на него находилась в нашем каталоге, свяжитесь с нами и мы незамедлительно удалим её. Файлы для обмена на трекере предоставлены пользователями сайта, и администрация не несёт ответственности за их содержание. Просьба не заливать файлы, защищенные авторскими правами, а также файлы нелегального содержания!
cron