На всех торрентах на трекере установлена скидка на скачивание в размере 100 процентов(а).
 Возможность скачивания торрента НЕ зависит от ограничений при низком ратио, низком аплоаде, требуемом ратио или требуемом аплоаде.


Начать новую тему Ответить на тему
Статистика раздачи
Размер: 391.89 МБ | Добавлен: 22 июл 2016, 22:39 | Скачали: 5
Сидеров: 20  [0 байт/сек]    Личеров: 43  [0 байт/сек]
Пред. тема | След. тема 

Автор
Сообщение

СообщениеДобавлено: 22 июл 2016, 22:39 

Ответить с цитатой 

Год: 2012
Жанр: Melodic Hard Rock, AOR
Издание: Legend Records – LGD 2012
Продолжительность: 00:54:07

Кодек: FLAC
Битрейт: Lossless
Тип рипа: tracks + .cue

Треклист:
01. Walk on the Water (06:43)
02. Someday (04:13)
03. Calm Before The Storm (06:41)
04. Crown of Thorns (05:00)
05. Precious (04:22)
06. Silence of Your Head (05:21)
07. Rescue Me (04:40)
08. Ashes (05:08)
09. Rising Sun (03:49)
10. Cold Wind Will Blow (04:31)
11. Deliverance (03:39)
Код:
Код:
X Lossless Decoder version 20141129 (148.1)

XLD extraction logfile from 2015-05-01 12:31:34 +0100

Dare / Calm Before The Storm 2

Used drive : PIONEER BD-RW   BDR-203 (revision 1.13)
Media type : Pressed CD

Ripper mode             : XLD Secure Ripper
Disable audio cache     : OK for the drive with a cache less than 1375KiB
Make use of C2 pointers : NO
Read offset correction  : 667
Max retry count         : 20
Gap status              : Analyzed, Appended (except HTOA)

TOC of the extracted CD
     Track |   Start  |  Length  | Start sector | End sector
    ---------------------------------------------------------
        1  | 00:00:00 | 06:42:48 |         0    |    30197
        2  | 06:42:48 | 04:13:00 |     30198    |    49172
        3  | 10:55:48 | 06:40:57 |     49173    |    79229
        4  | 17:36:30 | 05:00:00 |     79230    |   101729
        5  | 22:36:30 | 04:22:00 |    101730    |   121379
        6  | 26:58:30 | 05:21:00 |    121380    |   145454
        7  | 32:19:30 | 04:40:00 |    145455    |   166454
        8  | 36:59:30 | 05:08:26 |    166455    |   189580
        9  | 42:07:56 | 03:49:00 |    189581    |   206755
       10  | 45:56:56 | 04:31:00 |    206756    |   227080
       11  | 50:27:56 | 03:39:34 |    227081    |   243539

AccurateRip Summary (DiscID: 0017d003-00cb0797-900caf0b)
    Track 01 : OK (v2, confidence 7/7)
    Track 02 : OK (v2, confidence 7/7)
    Track 03 : OK (v2, confidence 7/7)
    Track 04 : OK (v2, confidence 7/7)
    Track 05 : OK (v2, confidence 7/7)
    Track 06 : OK (v2, confidence 7/7)
    Track 07 : OK (v2, confidence 7/7)
    Track 08 : OK (v2, confidence 7/7)
    Track 09 : OK (v2, confidence 7/7)
    Track 10 : OK (v2, confidence 7/7)
    Track 11 : OK (v2, confidence 7/7)
        ->All tracks accurately ripped.

All Tracks
    Album gain               : -7.98 dB
    Peak                     : 0.999969
    Statistics
        Read error                           : 0
        Jitter error (maybe fixed)           : 0
        Retry sector count                   : 0
        Damaged sector count                 : 0

Track 01
    Filename : /Users/MacMini/Working Folder/XLD/Dare - Calm Before The Storm 2 (2012) [FLAC]/01 Walk on the Water.flac
    Pre-gap length : 00:02:00

    Track gain               : -7.22 dB
    Peak                     : 0.999969
    CRC32 hash (test run)    : 08B27FF9
    CRC32 hash               : 08B27FF9
    CRC32 hash (skip zero)   : 6568A365
    AccurateRip v1 signature : 1BF078C4
    AccurateRip v2 signature : 44C50E7B
        ->Accurately ripped (v2, confidence 7/7)
    Statistics
        Read error                           : 0
        Jitter error (maybe fixed)           : 0
        Retry sector count                   : 0
        Damaged sector count                 : 0

Track 02
    Filename : /Users/MacMini/Working Folder/XLD/Dare - Calm Before The Storm 2 (2012) [FLAC]/02 Someday.flac

    Track gain               : -7.65 dB
    Peak                     : 0.999969
    CRC32 hash (test run)    : C786840B
    CRC32 hash               : C786840B
    CRC32 hash (skip zero)   : 4EE0A699
    AccurateRip v1 signature : CE3BED8C
    AccurateRip v2 signature : 19BAA28C
        ->Accurately ripped (v2, confidence 7/7)
    Statistics
        Read error                           : 0
        Jitter error (maybe fixed)           : 0
        Retry sector count                   : 0
        Damaged sector count                 : 0

Track 03
    Filename : /Users/MacMini/Working Folder/XLD/Dare - Calm Before The Storm 2 (2012) [FLAC]/03 Calm Before The Storm.flac

    Track gain               : -8.48 dB
    Peak                     : 0.999969
    CRC32 hash (test run)    : 3C5EDFB8
    CRC32 hash               : 3C5EDFB8
    CRC32 hash (skip zero)   : 14980DB8
    AccurateRip v1 signature : BE2F3270
    AccurateRip v2 signature : 2A52F4D2
        ->Accurately ripped (v2, confidence 7/7)
    Statistics
        Read error                           : 0
        Jitter error (maybe fixed)           : 0
        Retry sector count                   : 0
        Damaged sector count                 : 0

Track 04
    Filename : /Users/MacMini/Working Folder/XLD/Dare - Calm Before The Storm 2 (2012) [FLAC]/04 Crown of Thorns.flac

    Track gain               : -8.49 dB
    Peak                     : 0.999969
    CRC32 hash (test run)    : 72E99075
    CRC32 hash               : 72E99075
    CRC32 hash (skip zero)   : A1287CBF
    AccurateRip v1 signature : 31585C4F
    AccurateRip v2 signature : A26D0A1F
        ->Accurately ripped (v2, confidence 7/7)
    Statistics
        Read error                           : 0
        Jitter error (maybe fixed)           : 0
        Retry sector count                   : 0
        Damaged sector count                 : 0

Track 05
    Filename : /Users/MacMini/Working Folder/XLD/Dare - Calm Before The Storm 2 (2012) [FLAC]/05 Precious.flac

    Track gain               : -7.66 dB
    Peak                     : 0.999969
    CRC32 hash (test run)    : B4299029
    CRC32 hash               : B4299029
    CRC32 hash (skip zero)   : F7E3DCE8
    AccurateRip v1 signature : AD91D992
    AccurateRip v2 signature : 5A2BB710
        ->Accurately ripped (v2, confidence 7/7)
    Statistics
        Read error                           : 0
        Jitter error (maybe fixed)           : 0
        Retry sector count                   : 0
        Damaged sector count                 : 0

Track 06
    Filename : /Users/MacMini/Working Folder/XLD/Dare - Calm Before The Storm 2 (2012) [FLAC]/06 Silence of Your Head.flac

    Track gain               : -7.49 dB
    Peak                     : 0.999969
    CRC32 hash (test run)    : 4B647C8B
    CRC32 hash               : 4B647C8B
    CRC32 hash (skip zero)   : C98F199E
    AccurateRip v1 signature : 22C1F983
    AccurateRip v2 signature : D247D57D
        ->Accurately ripped (v2, confidence 7/7)
    Statistics
        Read error                           : 0
        Jitter error (maybe fixed)           : 0
        Retry sector count                   : 0
        Damaged sector count                 : 0

Track 07
    Filename : /Users/MacMini/Working Folder/XLD/Dare - Calm Before The Storm 2 (2012) [FLAC]/07 Rescue Me.flac

    Track gain               : -7.97 dB
    Peak                     : 0.999969
    CRC32 hash (test run)    : DE443D33
    CRC32 hash               : DE443D33
    CRC32 hash (skip zero)   : 5A47A8F2
    AccurateRip v1 signature : C3E1FE5A
    AccurateRip v2 signature : B4FB2A1E
        ->Accurately ripped (v2, confidence 7/7)
    Statistics
        Read error                           : 0
        Jitter error (maybe fixed)           : 0
        Retry sector count                   : 0
        Damaged sector count                 : 0

Track 08
    Filename : /Users/MacMini/Working Folder/XLD/Dare - Calm Before The Storm 2 (2012) [FLAC]/08 Ashes.flac

    Track gain               : -7.97 dB
    Peak                     : 0.999969
    CRC32 hash (test run)    : A0F9D7D0
    CRC32 hash               : A0F9D7D0
    CRC32 hash (skip zero)   : 26036082
    AccurateRip v1 signature : 29C67EA7
    AccurateRip v2 signature : D4C86814
        ->Accurately ripped (v2, confidence 7/7)
    Statistics
        Read error                           : 0
        Jitter error (maybe fixed)           : 0
        Retry sector count                   : 0
        Damaged sector count                 : 0

Track 09
    Filename : /Users/MacMini/Working Folder/XLD/Dare - Calm Before The Storm 2 (2012) [FLAC]/09 Rising Sun.flac

    Track gain               : -8.21 dB
    Peak                     : 0.999969
    CRC32 hash (test run)    : FB7E5AD2
    CRC32 hash               : FB7E5AD2
    CRC32 hash (skip zero)   : 651AC59C
    AccurateRip v1 signature : 006211D2
    AccurateRip v2 signature : AF70A304
        ->Accurately ripped (v2, confidence 7/7)
    Statistics
        Read error                           : 0
        Jitter error (maybe fixed)           : 0
        Retry sector count                   : 0
        Damaged sector count                 : 0

Track 10
    Filename : /Users/MacMini/Working Folder/XLD/Dare - Calm Before The Storm 2 (2012) [FLAC]/10 Cold Wind Will Blow.flac

    Track gain               : -6.58 dB
    Peak                     : 0.999969
    CRC32 hash (test run)    : 546AD48D
    CRC32 hash               : 546AD48D
    CRC32 hash (skip zero)   : 1216F4A6
    AccurateRip v1 signature : E636887A
    AccurateRip v2 signature : 4002B98A
        ->Accurately ripped (v2, confidence 7/7)
    Statistics
        Read error                           : 0
        Jitter error (maybe fixed)           : 0
        Retry sector count                   : 0
        Damaged sector count                 : 0

Track 11
    Filename : /Users/MacMini/Working Folder/XLD/Dare - Calm Before The Storm 2 (2012) [FLAC]/11 Deliverance.flac

    Track gain               : -8.33 dB
    Peak                     : 0.999969
    CRC32 hash (test run)    : AF5C7BDD
    CRC32 hash               : AF5C7BDD
    CRC32 hash (skip zero)   : 9EF4079D
    AccurateRip v1 signature : 9F7A5616
    AccurateRip v2 signature : 9162C25E
        ->Accurately ripped (v2, confidence 7/7)
    Statistics
        Read error                           : 0
        Jitter error (maybe fixed)           : 0
        Retry sector count                   : 0
        Damaged sector count                 : 0

No errors occurred

End of status report

-----BEGIN XLD SIGNATURE-----
1nVzRwlb81zL68eHXxsTPFEXb2abjadpR6yI_omaf4mYQAp1aPAs.ebsg1iEzJ7ZmeZjbQgH3uXgX7I2wQPMlXK2Gnj3I.3ISsj3M0K
-----END XLD SIGNATURE-----
Код:
Код:
-----------------------

DON'T MODIFY THIS FILE

-----------------------

PERFORMER: auCDtect Task Manager, ver. 1.6.0 RC1 build 1.6.0.1
Copyright (c) 2008-2010 y-soft. All rights reserved
http:/y-soft.org

ANALYZER: auCDtect: CD records authenticity detector, version 0.8.2
Copyright (c) 2004 Oleg Berngardt. All rights reserved.
Copyright (c) 2004 Alexander Djourik. All rights reserved.

FILE: 11 Deliverance.flac
  Size: 26977070 Hash: 82F00B9A17D51F147AF6446B3741049A Accuracy: -m0
  Conclusion: CDDA 100%
  Signature: E5D4B6556AEE598811BD40F5E36F6B944B2ADB66
FILE: 10 Cold Wind Will Blow.flac
  Size: 33119574 Hash: BE1EE39887690BCA35E1A7FD542EF588 Accuracy: -m0
  Conclusion: CDDA 100%
  Signature: 918BAB29937E45EBE62A85FF6AC85B10E0E63524
FILE: 09 Rising Sun.flac
  Size: 28516340 Hash: F5072C93FCC97868734678592B80AFF6 Accuracy: -m0
  Conclusion: CDDA 100%
  Signature: FC8225812220FCD41145D5E9874B29AD44205A45
FILE: 08 Ashes.flac
  Size: 39477931 Hash: 1AA7C129D39AEC587351944361082F5F Accuracy: -m0
  Conclusion: CDDA 100%
  Signature: AFF37B6F14972921709846663725C2806D176362
FILE: 07 Rescue Me.flac
  Size: 37675009 Hash: BAEA73013CFB51E5496ED76C4708942B Accuracy: -m0
  Conclusion: CDDA 100%
  Signature: 1E39028847AD2EF6775A2DAD421C9C337B2C6357
FILE: 06 Silence of Your Head.flac
  Size: 39271755 Hash: 4007DF1D58F4DD41602D947447B9C339 Accuracy: -m0
  Conclusion: CDDA 100%
  Signature: AF6878C501992D5D0A81C8C5A233D95092616803
FILE: 05 Precious.flac
  Size: 32831645 Hash: 5F89F9F86B53E35740FC726957958B94 Accuracy: -m0
  Conclusion: CDDA 100%
  Signature: ADB00224BD2C077F9E650F9973FB7CE07528E3A3
FILE: 04 Crown of Thorns.flac
  Size: 38909961 Hash: 635C5B039A088C41B5A3B0EED7C8D3E3 Accuracy: -m0
  Conclusion: CDDA 100%
  Signature: 73D2216BEC57DDD747DFA071D26D8AC9483CFEA7
FILE: 03 Calm Before The Storm.flac
  Size: 51028466 Hash: F4FDC0E6741C7212A1F673D48D3009B9 Accuracy: -m0
  Conclusion: CDDA 100%
  Signature: 68F6F04CF59FFC77929BE8F5ACED7ECF043F3693
FILE: 02 Someday.flac
  Size: 33715335 Hash: 984AA9EB9F3C2D4C2ED189D554A4E3E3 Accuracy: -m0
  Conclusion: CDDA 100%
  Signature: E654B9279ABF7D84CF6F70A52882DE4819ADB733
FILE: 01 Walk on the Water.flac
  Size: 49347208 Hash: 4921B97671791906DE2E56936364EBB8 Accuracy: -m0
  Conclusion: CDDA 100%
  Signature: 461BDF141ADD904762F2608C027E7E5120F14A7C
загрузка...
Правила, инструкции, FAQ!!!
Торрент  Добавлен [22 июл 2016, 22:39] Скачать торрент Магнет ссылка
Скачать торрент
[ Размер 16.73 КБ / Просмотров 45 ]

Статус
Проверен 
 
Размер  391.89 МБ
Приватный: Нет (DHT включён)
.torrent скачан  5
Как залить торрент? | Как скачать Torrent? | Ошибка в торренте? Качайте магнет  


     Отправить личное сообщение
   
Страница 1 из 1
Показать сообщения за:  Поле сортировки  
Начать новую тему Ответить на тему

   Похожие торренты   Автор   Ответы   Просмотры   Последнее сообщение 
В этой теме нет новых непрочитанных сообщений. Скачать торрент Проверен (Melodic Rock | AOR) Lovering - Calm Before The Storm - 2000, MP3, 320 kbps

в форуме AOR (Melodic Hard Rock, Arena rock), Размер: 92.4 МБ, Здоровье: 100%

Anonymous

0
2|0

28
0

08 окт 2016, 01:19

Anonymous Перейти к последнему сообщению

В этой теме нет новых непрочитанных сообщений. Скачать торрент Проверен (Melodic Hard Rock) The Storm - Eye Of The Storm (Japanese version) - 1997, APE (image+.cue), lossless

в форуме Classic Rock & Hard Rock, Размер: 356.24 МБ, Здоровье: 100%

Anonymous

0
3|1

73
1

03 сен 2016, 17:45

Anonymous Перейти к последнему сообщению

В этой теме нет новых непрочитанных сообщений. Скачать торрент Проверен (Garage Rock, Psychedelic Rock) [24/96] [LP] The Rising Storm - Calm Before... (1967) - 1992, FLAC (tracks)

в форуме Зарубежный рок (оцифровки), Размер: 409.26 МБ, Здоровье: 100%

Anonymous

0
3|1

37
0

25 авг 2016, 18:14

Anonymous Перейти к последнему сообщению

В этой теме нет новых непрочитанных сообщений. Скачать торрент Проверен (Classic Rock, Garage, Psychedelic) The Rising Storm - Calm Before... - 1966, MP3 (tracks), 192 kbps

в форуме Classic Rock & Hard Rock, Размер: 52.77 МБ, Здоровье: 100%

Anonymous

0
184|0

58
3

13 ноя 2016, 14:41

Anonymous Перейти к последнему сообщению

В этой теме нет новых непрочитанных сообщений. Скачать торрент Проверен (Jazz-Rock, Afro-Cuban, Funk) [CD] Ben & The Platano Group - Paris Soul - 1971 (1999, Dare-Dare), FLAC (tracks+.cue), lossless

в форуме Jazz Fusion, Размер: 206.11 МБ, Здоровье: 100%

Anonymous

0
5|2

14
0

13 сен 2017, 22:32

Anonymous Перейти к последнему сообщению



Сейчас этот форум просматривают: Google [Bot] и гости: 0


Вы не можете начинать темы
Вы не можете отвечать на сообщения
Вы не можете редактировать свои сообщения
Вы не можете удалять свои сообщения
Вы не можете добавлять вложения

Перейти:  
Ресурс не предоставляет электронные версии произведений, а занимается лишь коллекционированием и каталогизацией ссылок, присылаемых и публикуемых на форуме нашими читателями. Если вы являетесь правообладателем какого-либо представленного материала и не желаете чтобы ссылка на него находилась в нашем каталоге, свяжитесь с нами и мы незамедлительно удалим её. Файлы для обмена на трекере предоставлены пользователями сайта, и администрация не несёт ответственности за их содержание. Просьба не заливать файлы, защищенные авторскими правами, а также файлы нелегального содержания!
cron