На всех торрентах на трекере установлена скидка на скачивание в размере 100 процентов(а).
 Возможность скачивания торрента НЕ зависит от ограничений при низком ратио, низком аплоаде, требуемом ратио или требуемом аплоаде.


Начать новую тему Ответить на тему
Статистика раздачи
Размер: 63.73 ГБ | Добавлен: 12 окт 2015, 22:00 | Скачали: 3
Сидеров: 19  [0 байт/сек]    Личеров: 55  [0 байт/сек]
Пред. тема | След. тема 

Автор
Сообщение

СообщениеДобавлено: 12 окт 2015, 22:00 

Название: На Краю Вселенной / Далеко во Вселенной
Оригинальное название: Farscape
Год выхода: 1999-2004
Жанр: Фантастика, Фэнтези, Приключения
Режиссер: Тони Тилс, Роуэн Вудс, Эндрю Проуз, Йен Уотсон, Питер Андрикидис, Джофф Беннетт, Катрин Миллар, Пино Амента, Йен Бэрри
В ролях: Бен Браудер, Клаудия Блэк, Вирджиния Хей, Энтони Симко, Джонатан Харди, Гиги Эджли, Лэни Джон Тупу, Пол Годдард, Уэйн Пигрэм, Тэмми Макинтош, Рейли Хилл, Мелисса Джэффер

О фильме:
Астронавт Джон Крайтон, испытывая модуль собственной разработки, проваливается в червоточину и, оказавшись на другом конце Вселенной, попадает в самую гущу космической битвы. Его модуль «Farscape-1» затягивает на борт Мойи, огромного био-механоидного живого корабля. Здесь Крайтон встречается с представителями других рас, оказавшимися беглыми заключенными, отчаянно пытающимися вырваться из лап агрессивных гомо сапиенс, называющих себя Миротворцами. Теперь товарищами Джона по путешествию становятся Ка Д’Арго - свирепый Лаксианский воин; Райджел XVI - похожий на слизняка Доминар Хайнирской Империи и Па У Зото Заан, безмятежная Дельвийская жрица. А камеру с ним делит товарищ по заключению Айрин Сун - захваченный офицер Миротворцев…

«На краю́ Вселе́нной» (англ. Farscape) — австралийско-американский фантастический телевизионный сериал. Телесериал снимался в Австралии при участии телекомпаний The Jim Henson Company и Hallmark Entertainment по заказу телеканала Sci Fi Channel. Пилотная серия вышла на экраны 19 марта 1999 года. Не является научной фантастикой из-за противоречий, а также множества физических законов, действующих в рамках отдельных эпизодов — в научной фантастике изначально заданная картина мира логична и внутренне непротиворечива.

В октябре 1999 года трансляция телесериала началась в России на телеканале ТНТ. В эфир вышло только три сезона телесериала. В 2005 году русским кабельным телеканалом Hallmark также был показан фильм «На краю Вселенной: Битва за мир».В данный момент сериал транслируется на русскоязычном канале AXN Sci-Fi.





Страна: Австралия, США
Продолжительность: 88 x ~00:50:00 сек.
Перевод: Профессиональный (многоголосый, закадровый)


Исходник: Blu-Ray 1080i
Кодек: XVID
Качество: BDRip
Видео: 640x480 (1-3 сезон), 720x400 (4 сезон), 23.976 fps, ~1697 kbps avg, 0.26 bit/pixel
Звук: 48 kHz, AC3 Dolby Digital, 3/2 (L,C,R,l,r) + LFE ch, ~448 kbps (Некоторые серии 2 сезона 2.0 192 kbps)
Субтитры: Нет

1-3 сезон:

4 сезон:
General
Complete name : C:Мои раздачи 3Farscape.1999-2004.hdrip_[teko]season.01s01e03_Exodus.from.Genesis.avi
Format : AVI
Format/Info : Audio Video Interleave
File size : 742 MiB
Duration : 51mn 33s
Overall bit rate : 2 012 Kbps
Writing application : VirtualDubMod 1.5.10.3 | http://www.virtualdub-fr.org || (build 2550/release)
Writing library : VirtualDubMod build 2550/release

Video
ID : 0
Format : MPEG-4 Visual
Format profile : Advanced Simple@L5
Format settings, BVOP : 2
Format settings, QPel : No
Format settings, GMC : No warppoints
Format settings, Matrix : Custom
Codec ID : XVID
Codec ID/Hint : XviD
Duration : 51mn 33s
Bit rate : 1 555 Kbps
Width : 640 pixels
Height : 480 pixels
Display aspect ratio : 4:3
Frame rate : 23.976 fps
Color space : YUV
Chroma subsampling : 4:2:0
Bit depth : 8 bits
Scan type : Progressive
Compression mode : Lossy
Bits/(Pixel*Frame) : 0.211
Stream size : 573 MiB (77%)
Writing library : XviD 65

Audio
ID : 1
Format : AC-3
Format/Info : Audio Coding 3
Mode extension : CM (complete main)
Codec ID : 2000
Duration : 51mn 33s
Bit rate mode : Constant
Bit rate : 448 Kbps
Channel(s) : 6 channels
Channel positions : Front: L C R, Side: L R, LFE
Sampling rate : 48.0 KHz
Bit depth : 16 bits
Compression mode : Lossy
Stream size : 165 MiB (22%)
Alignment : Split accross interleaves
Interleave, duration : 42 ms (1.00 video frame)
Interleave, preload duration : 500 ms




Релиз: UnSlayeR
загрузка...
Правила, инструкции, FAQ!!!
Торрент  Добавлен [12 окт 2015, 22:00] Скачать торрент
Скачать торрент
[ Размер 166.59 КБ / Просмотров 14 ]

Статус
Проверен 
 
Размер  63.73 ГБ
Приватный: Нет (DHT включён)
.torrent скачан  3
Как залить торрент? | Как скачать Torrent? | Как смотреть и слушать онлайн?  


     Отправить личное сообщение
   
Страница 1 из 1
Показать сообщения за:  Поле сортировки  
Начать новую тему Ответить на тему

   Похожие торренты   Автор   Ответы   Просмотры   Последнее сообщение 
В этой теме нет новых непрочитанных сообщений. Скачать торрент Проверен Далеко во Вселенной / Farscape [S01-04 + Фильм] (1999-2004) HDRip | КПК | P

в форуме Видео для смартфонов и КПК, Размер: 19 ГБ, Здоровье: 100%

Гость

0
420|78

392
28

12 окт 2015, 21:51

Гость Перейти к последнему сообщению

В этой теме нет новых непрочитанных сообщений. Скачать торрент Проверен Далеко во Вселенной / Farscape [S01] (1999) DVD | P

в форуме Зарубежные сериалы, Размер: 51.63 ГБ, Здоровье: 52%

Гость

0
12|23

384
14

12 окт 2015, 20:54

Гость Перейти к последнему сообщению

В этой теме нет новых непрочитанных сообщений. Скачать торрент Проверен Далеко во Вселенной / Farscape [S04] (2002) DVD | P2

в форуме Зарубежные сериалы, Размер: 45.69 ГБ, Здоровье: 33%

Гость

0
3|9

366
3

12 окт 2015, 21:16

Гость Перейти к последнему сообщению

В этой теме нет новых непрочитанных сообщений. Скачать торрент Проверен Далеко во Вселенной / Farscape [S03] (2001) DVD | P

в форуме Зарубежные сериалы, Размер: 59.76 ГБ, Здоровье: 12%

Гость

0
1|8

334
1

12 окт 2015, 21:06

Гость Перейти к последнему сообщению

В этой теме нет новых непрочитанных сообщений. Скачать торрент Проверен Далеко во Вселенной / Farscape [S02] (2000) DVD | P

в форуме Зарубежные сериалы, Размер: 55.69 ГБ, Здоровье: 14%

Гость

0
1|7

312
2

12 окт 2015, 21:02

Гость Перейти к последнему сообщению



Сейчас этот форум просматривают: нет зарегистрированных пользователей и гости: 1


Вы не можете начинать темы
Вы не можете отвечать на сообщения
Вы не можете редактировать свои сообщения
Вы не можете удалять свои сообщения
Вы не можете добавлять вложения

Перейти:  

!ВНИМАНИЕ!
 Ресурс не предоставляет электронные версии произведений, а занимается лишь коллекционированием и каталогизацией ссылок, присылаемых и публикуемых на форуме нашими читателями. Если вы являетесь правообладателем какого-либо представленного материала и не желаете чтобы ссылка на него находилась в нашем каталоге, свяжитесь с нами и мы незамедлительно удалим её. Файлы для обмена на трекере предоставлены пользователями сайта, и администрация не несёт ответственности за их содержание. Просьба не заливать файлы, защищенные авторскими правами, а также файлы нелегального содержания!