На всех торрентах на трекере установлена скидка на скачивание в размере 100 процентов(а).
 Возможность скачивания торрента НЕ зависит от ограничений при низком ратио, низком аплоаде, требуемом ратио или требуемом аплоаде.


Начать новую тему Ответить на тему
Статистика раздачи
Размер: 379.55 МБ | Добавлен: 05 авг 2018, 09:25 | Скачали: 0
Сидеров: 1  [0 байт/сек]    Личеров: 0  [0 байт/сек]
Пред. тема | След. тема 

Автор
Сообщение

СообщениеДобавлено: 05 авг 2018, 09:25 

Ответить с цитатой 

Ismeros Arcok / Szelbe kialtok
Жанр: Classic Rock
Носитель: CD
Страна-производитель диска (релиза): Hungary
Год издания: 2005
Издатель (лейбл): IA
Номер по каталогу: 003
Страна исполнителя (группы): Hungary
Аудиокодек: FLAC (*.flac)
Тип рипа: image+.cue
Битрейт аудио: lossless
Продолжительность: 01:02:30
Источник (релизер): собственный рип
Наличие сканов в содержимом раздачи: нет
Треклист:
01. Prologus
02. Ruszkik haza
03. Szelbe kialtok
04. Csillagok, csillagok
05. Terkep
06. Baratom
07. Eltunni csendben
08. Ha lemegy a nap
09. Nincs happy end
10. A szel patkojatol…
11. Uzenet
12. Fenyok
13. Hidegen fujnak a szelek
14. Mennyit er?
15. Az utolso magyar
16. Epilogus
Код:
Exact Audio Copy V1.3 from 2. September 2016
EAC extraction logfile from 3. August 2018, 14:52
Ismeros Arcok / Szelbe kialtok
Used drive  : PIONEER BD-RW   BDR-209D   Adapter: 1  ID: 2
Read mode               : Secure
Utilize accurate stream : Yes
Defeat audio cache      : Yes
Make use of C2 pointers : No
Read offset correction                      : 667
Overread into Lead-In and Lead-Out          : No
Fill up missing offset samples with silence : Yes
Delete leading and trailing silent blocks   : No
Null samples used in CRC calculations       : Yes
Used interface                              : Native Win32 interface for Win NT & 2000
Used output format              : User Defined Encoder
Selected bitrate                : 1024 kBit/s
Quality                         : High
Add ID3 tag                     : No
Command line compressor         : C:\Program Files (x86)\Exact Audio Copy\FLAC\FLAC.EXE
Additional command line options : -6 -V -T "ARTIST=%artist%" -T "TITLE=%title%" -T "ALBUM=%albumtitle%" -T "DATE=%year%" -T "TRACKNUMBER=%tracknr%" -T "GENRE=%genre%" -T "COMMENT=%comment%" -T "BAND=%albuminterpret%" -T "ALBUMARTIST=%albuminterpret%" -T "COMPOSER=%composer%" %haslyrics%--tag-from-file=LYRICS="%lyricsfile%"%haslyrics% -T "DISCNUMBER=%cdnumber%" -T "TOTALDISCS=%totalcds%" -T "TOTALTRACKS=%numtracks%" %hascover%--picture="%coverfile%"%hascover% %source% -o %dest%
TOC of the extracted CD
     Track |   Start  |  Length  | Start sector | End sector
    ---------------------------------------------------------
        1  |  0:00.00 |  0:54.38 |         0    |     4087
        2  |  0:54.38 |  5:23.34 |      4088    |    28346
        3  |  6:17.72 |  3:07.72 |     28347    |    42443
        4  |  9:25.69 |  0:59.03 |     42444    |    46871
        5  | 10:24.72 |  4:23.11 |     46872    |    66607
        6  | 14:48.08 |  6:07.15 |     66608    |    94147
        7  | 20:55.23 |  4:04.32 |     94148    |   112479
        8  | 24:59.55 |  7:25.02 |    112480    |   145856
        9  | 32:24.57 |  6:07.61 |    145857    |   173442
       10  | 38:32.43 |  3:29.43 |    173443    |   189160
       11  | 42:02.11 |  1:37.02 |    189161    |   196437
       12  | 43:39.13 |  5:00.66 |    196438    |   219003
       13  | 48:40.04 |  2:24.09 |    219004    |   229812
       14  | 51:04.13 |  3:55.07 |    229813    |   247444
       15  | 54:59.20 |  5:14.05 |    247445    |   270999
       16  | 60:13.25 |  2:17.15 |    271000    |   281289
Range status and errors
Selected range
     Filename F:\Ismeros Arcok - 2005 - Szelbe kialtok\Ismeros Arcok - Szelbe kialtok.wav
     Peak level 100.0 %
     Extraction speed 4.8 X
     Range quality 100.0 %
     Test CRC 8FC60E07
     Copy CRC 8FC60E07
     Copy OK
No errors occurred
AccurateRip summary
Track  1  not present in database
Track  2  not present in database
Track  3  not present in database
Track  4  not present in database
Track  5  not present in database
Track  6  not present in database
Track  7  not present in database
Track  8  not present in database
Track  9  not present in database
Track 10  not present in database
Track 11  not present in database
Track 12  not present in database
Track 13  not present in database
Track 14  not present in database
Track 15  not present in database
Track 16  not present in database
None of the tracks are present in the AccurateRip database
End of status report
---- CUETools DB Plugin V2.1.6
[CTDB TOCID: VmfYN2HSqELQ6nrKV9JWu6eK6E0-] disk not present in database
Submit result: VmfYN2HSqELQ6nrKV9JWu6eK6E0- has been uploaded
==== Log checksum BF6BAF4DE9A58870640175A107DA34AF69786481D71957EBA3057D31E83AB100 ====
Код:
-----------------------
DON'T MODIFY THIS FILE
-----------------------
PERFORMER: auCDtect Task Manager, ver. 1.6.0 RC1 build 1.6.0.1
Copyright (c) 2008-2010 y-soft. All rights reserved
[url=http://y-soft.org]http://y-soft.org[/url]
ANALYZER: auCDtect: CD records authenticity detector, version 0.8.2
Copyright (c) 2004 Oleg Berngardt. All rights reserved.
Copyright (c) 2004 Alexander Djourik. All rights reserved.
FILE: Ismeros Arcok - Szelbe kialtok.flac
  Size: 397917362 Hash: 70E5EF2A499D3F2374A11D4F4796C568 Accuracy: -m0
  Conclusion: CDDA 100%
  Signature: 814BFFED38C3A15ED753D505F5B4EA0339207D93
Nyerges Attila - gitár, ének
Práder Vilmos - gitár, ének
Galambos Nándor - basszusgitár
Kovacsik Tamás - dob
загрузка...
Правила, инструкции, FAQ!!!
Торрент  Добавлен [05 авг 2018, 09:25] Скачать торрент Магнет ссылка
Скачать торрент
[ Размер 15.51 КБ / Просмотров 21 ]

Статус
Проверен 
 
Размер  379.55 МБ
Приватный: Нет (DHT включён)
.torrent скачан  0
Как залить торрент? | Как скачать Torrent? | Ошибка в торренте? Качайте магнет  


     Отправить личное сообщение
   
Страница 1 из 1
Показать сообщения за:  Поле сортировки  
Начать новую тему Ответить на тему

   Похожие торренты   Автор   Ответы   Просмотры   Последнее сообщение 
В этой теме нет новых непрочитанных сообщений. Скачать торрент Проверен (Melodic Rock, Classic Rock) [CD] Ismerős Arcok (Ismeros Arcok) - Csak a zene! - 2015, FLAC (tracks+.cue), lossless

в форуме Classic Rock & Hard Rock, Размер: 432.27 МБ, Здоровье: 100%

Anonymous

0
2|0

17
0

04 сен 2016, 21:55

Anonymous Перейти к последнему сообщению

В этой теме нет новых непрочитанных сообщений. Скачать торрент Проверен (Classic Rock) [CD] Ismeros Arcok - Eberalom - 2016, FLAC (image+.cue), lossless

в форуме Classic Rock & Hard Rock, Размер: 593.11 МБ, Здоровье: 0%

Anonymous

0
0|0

4
0

05 авг 2018, 09:24

Anonymous Перейти к последнему сообщению

В этой теме нет новых непрочитанных сообщений. Скачать торрент Проверен (Classic Rock) [CD] Ismeros Arcok - Mennyit er? - 2004, FLAC (image+.cue), lossless

в форуме Classic Rock & Hard Rock, Размер: 201.64 МБ, Здоровье: 0%

Anonymous

0
0|0

7
0

05 авг 2018, 09:25

Anonymous Перейти к последнему сообщению

В этой теме нет новых непрочитанных сообщений. Скачать торрент Проверен (Classic Rock) [CD] Ismeros Arcok - Keritest bontok - 2012, FLAC (image+.cue), lossless

в форуме Classic Rock & Hard Rock, Размер: 475.07 МБ, Здоровье: 100%

Anonymous

0
1|0

5
0

05 авг 2018, 09:25

Anonymous Перейти к последнему сообщению

В этой теме нет новых непрочитанных сообщений. Скачать торрент Проверен (Classic Rock) [CD] Ismeros Arcok - Lelekveszto - 2009, FLAC (tracks+.cue), lossless

в форуме Classic Rock & Hard Rock, Размер: 605.24 МБ, Здоровье: 0%

Anonymous

0
0|0

5
0

05 авг 2018, 09:25

Anonymous Перейти к последнему сообщению



Сейчас этот форум просматривают: нет зарегистрированных пользователей и гости: 0


Вы не можете начинать темы
Вы не можете отвечать на сообщения
Вы не можете редактировать свои сообщения
Вы не можете удалять свои сообщения
Вы не можете добавлять вложения

Перейти:  
Ресурс не предоставляет электронные версии произведений, а занимается лишь коллекционированием и каталогизацией ссылок, присылаемых и публикуемых на форуме нашими читателями. Если вы являетесь правообладателем какого-либо представленного материала и не желаете чтобы ссылка на него находилась в нашем каталоге, свяжитесь с нами и мы незамедлительно удалим её. Файлы для обмена на трекере предоставлены пользователями сайта, и администрация не несёт ответственности за их содержание. Просьба не заливать файлы, защищенные авторскими правами, а также файлы нелегального содержания!
cron