На всех торрентах на трекере установлена скидка на скачивание в размере 100 процентов(а).
 Возможность скачивания торрента НЕ зависит от ограничений при низком ратио, низком аплоаде, требуемом ратио или требуемом аплоаде.


Начать новую тему Ответить на тему
Статистика раздачи
Размер: 300.39 МБ | Добавлен: 05 авг 2018, 09:25 | Скачали: 0
Сидеров: 2  [0 байт/сек]    Личеров: 1  [0 байт/сек]
Пред. тема | След. тема 

Автор
Сообщение

СообщениеДобавлено: 05 авг 2018, 09:25 

Ответить с цитатой 

The Gentlemen / Brass City Band
Жанр: Classic Rock, Hard Rock, Rock'N'Roll
Носитель: CD
Страна-производитель диска (релиза): US
Год издания: 2005
Издатель (лейбл): The Gentlemen's Recording Co.
Номер по каталогу: TGRC-03
Страна исполнителя (группы): US
Аудиокодек: FLAC (*.flac)
Тип рипа: tracks+.cue
Битрейт аудио: lossless
Продолжительность: 00:43:10
Источник (релизер): mintty
Наличие сканов в содержимом раздачи: да
Треклист:
01. Flame for Hire (3:51)
02. Velvet Rope (2:30)
03. Three-Minute Marriage Proposal (3:09)
04. Silver Boogie (3:12)
05. He Had a Mother Tongue (2:32)
06. 100 Stone (2:35)
07. They Don't Exist (4:45)
08. Hit That (3:49)
09. Watchdogs (2:58)
10. No Need to Leave (5:20)
11. Creeping Secrets (2:43)
12. A Lot to Say (2:47)
13. Brass City Band (2:59)
Код:
Exact Audio Copy V1.3 from 2. September 2016
EAC extraction logfile from 20. October 2017, 0:20
The Gentlemen / Brass City Band
Used drive  : LITE-ON SOHW-1673SU   Adapter: 1  ID: 3
Read mode               : Secure
Utilize accurate stream : Yes
Defeat audio cache      : Yes
Make use of C2 pointers : No
Read offset correction                      : 6
Overread into Lead-In and Lead-Out          : No
Fill up missing offset samples with silence : Yes
Delete leading and trailing silent blocks   : No
Null samples used in CRC calculations       : Yes
Used interface                              : Native Win32 interface for Win NT & 2000
Gap handling                                : Appended to previous track
Used output format              : User Defined Encoder
Selected bitrate                : 1024 kBit/s
Quality                         : High
Add ID3 tag                     : No
Command line compressor         : C:\Program Files (x86)\FLAC\flac.exe
Additional command line options : -8 -V -T "ARTIST=%artist%" -T "TITLE=%title%" -T "ALBUM=%albumtitle%" -T "DATE=%year%" -T "TRACKNUMBER=%tracknr%" -T "GENRE=%genre%" -T "PERFORMER=%albuminterpret%" -T "COMPOSER=%composer%" %haslyrics%--tag-from-file=LYRICS="%lyricsfile%"%haslyrics% -T "ALBUMARTIST=%albumartist%" -T "DISCNUMBER=%cdnumber%" -T "TOTALDISCS=%totalcds%" -T "TOTALTRACKS=%numtracks%" -T "COMMENT=%comment%" %source% -o %dest%
TOC of the extracted CD
     Track |   Start  |  Length  | Start sector | End sector
    ---------------------------------------------------------
        1  |  0:00.00 |  3:51.16 |         0    |    17340
        2  |  3:51.16 |  2:30.11 |     17341    |    28601
        3  |  6:21.27 |  3:08.62 |     28602    |    42763
        4  |  9:30.14 |  3:11.42 |     42764    |    57130
        5  | 12:41.56 |  2:32.08 |     57131    |    68538
        6  | 15:13.64 |  2:35.27 |     68539    |    80190
        7  | 17:49.16 |  4:44.54 |     80191    |   101544
        8  | 22:33.70 |  3:48.54 |    101545    |   118698
        9  | 26:22.49 |  2:57.71 |    118699    |   132044
       10  | 29:20.45 |  5:20.35 |    132045    |   156079
       11  | 34:41.05 |  2:42.55 |    156080    |   168284
       12  | 37:23.60 |  2:47.00 |    168285    |   180809
       13  | 40:10.60 |  2:58.57 |    180810    |   194216
Track  1
     Filename D:\Music\1_new\0_downloads\0_Temp\The Gentlemen [2005] Brass City Band {TGRC-03, CD} [FLAC]\01. Flame for Hire.wav
     Pre-gap length  0:00:02.00
     Peak level 100.0 %
     Extraction speed 2.1 X
     Track quality 100.0 %
     Test CRC 93D4BE13
     Copy CRC 93D4BE13
     Track not present in AccurateRip database
     Copy OK
Track  2
     Filename D:\Music\1_new\0_downloads\0_Temp\The Gentlemen [2005] Brass City Band {TGRC-03, CD} [FLAC]\02. Velvet Rope.wav
     Peak level 100.0 %
     Extraction speed 2.0 X
     Track quality 100.0 %
     Test CRC 2BCB19F4
     Copy CRC 2BCB19F4
     Track not present in AccurateRip database
     Copy OK
Track  3
     Filename D:\Music\1_new\0_downloads\0_Temp\The Gentlemen [2005] Brass City Band {TGRC-03, CD} [FLAC]\03. Three-Minute Marriage Proposal.wav
     Pre-gap length  0:00:01.02
     Peak level 100.0 %
     Extraction speed 2.1 X
     Track quality 100.0 %
     Test CRC 6F4B37C2
     Copy CRC 6F4B37C2
     Track not present in AccurateRip database
     Copy OK
Track  4
     Filename D:\Music\1_new\0_downloads\0_Temp\The Gentlemen [2005] Brass City Band {TGRC-03, CD} [FLAC]\04. Silver Boogie.wav
     Pre-gap length  0:00:02.32
     Peak level 100.0 %
     Extraction speed 1.4 X
     Track quality 99.9 %
     Test CRC D2813ED5
     Copy CRC D2813ED5
     Track not present in AccurateRip database
     Copy OK
Track  5
     Filename D:\Music\1_new\0_downloads\0_Temp\The Gentlemen [2005] Brass City Band {TGRC-03, CD} [FLAC]\05. He Had a Mother Tongue.wav
     Peak level 100.0 %
     Extraction speed 0.4 X
     Track quality 100.0 %
     Test CRC CE570FB9
     Copy CRC CE570FB9
     Track not present in AccurateRip database
     Copy OK
Track  6
     Filename D:\Music\1_new\0_downloads\0_Temp\The Gentlemen [2005] Brass City Band {TGRC-03, CD} [FLAC]\06. 100 Stone.wav
     Peak level 100.0 %
     Extraction speed 1.3 X
     Track quality 99.9 %
     Test CRC CBB09F39
     Copy CRC CBB09F39
     Track not present in AccurateRip database
     Copy OK
Track  7
     Filename D:\Music\1_new\0_downloads\0_Temp\The Gentlemen [2005] Brass City Band {TGRC-03, CD} [FLAC]\07. They Don't Exist.wav
     Pre-gap length  0:00:01.17
     Peak level 100.0 %
     Extraction speed 2.2 X
     Track quality 100.0 %
     Test CRC 3DD52A48
     Copy CRC 3DD52A48
     Track not present in AccurateRip database
     Copy OK
Track  8
     Filename D:\Music\1_new\0_downloads\0_Temp\The Gentlemen [2005] Brass City Band {TGRC-03, CD} [FLAC]\08. Hit That.wav
     Peak level 100.0 %
     Extraction speed 1.5 X
     Track quality 99.9 %
     Test CRC B9DFD4F1
     Copy CRC B9DFD4F1
     Track not present in AccurateRip database
     Copy OK
Track  9
     Filename D:\Music\1_new\0_downloads\0_Temp\The Gentlemen [2005] Brass City Band {TGRC-03, CD} [FLAC]\09. Watchdogs.wav
     Peak level 100.0 %
     Extraction speed 0.4 X
     Track quality 99.9 %
     Test CRC 1DB08DC5
     Copy CRC 1DB08DC5
     Track not present in AccurateRip database
     Copy OK
Track 10
     Filename D:\Music\1_new\0_downloads\0_Temp\The Gentlemen [2005] Brass City Band {TGRC-03, CD} [FLAC]\10. No Need to Leave.wav
     Pre-gap length  0:00:02.13
     Peak level 100.0 %
     Extraction speed 2.2 X
     Track quality 100.0 %
     Test CRC E4D0BAF4
     Copy CRC E4D0BAF4
     Track not present in AccurateRip database
     Copy OK
Track 11
     Filename D:\Music\1_new\0_downloads\0_Temp\The Gentlemen [2005] Brass City Band {TGRC-03, CD} [FLAC]\11. Creeping Secrets.wav
     Pre-gap length  0:00:02.28
     Peak level 100.0 %
     Extraction speed 2.0 X
     Track quality 100.0 %
     Test CRC 8E4AA57F
     Copy CRC 8E4AA57F
     Track not present in AccurateRip database
     Copy OK
Track 12
     Filename D:\Music\1_new\0_downloads\0_Temp\The Gentlemen [2005] Brass City Band {TGRC-03, CD} [FLAC]\12. A Lot to Say.wav
     Pre-gap length  0:00:02.46
     Peak level 100.0 %
     Extraction speed 1.3 X
     Track quality 99.9 %
     Test CRC FA72E026
     Copy CRC FA72E026
     Track not present in AccurateRip database
     Copy OK
Track 13
     Filename D:\Music\1_new\0_downloads\0_Temp\The Gentlemen [2005] Brass City Band {TGRC-03, CD} [FLAC]\13. Brass City Band.wav
     Pre-gap length  0:00:02.12
     Peak level 100.0 %
     Extraction speed 0.4 X
     Track quality 100.0 %
     Test CRC 02234065
     Copy CRC 02234065
     Track not present in AccurateRip database
     Copy OK
None of the tracks are present in the AccurateRip database
No errors occurred
End of status report
---- CUETools DB Plugin V2.1.6
[CTDB TOCID: AA4h8n0mIIuGNg8QYozfPA_xR6E-] found
Submit result: already submitted
Track | CTDB Status
  1   | (2/2) Accurately ripped
  2   | (2/2) Accurately ripped
  3   | (2/2) Accurately ripped
  4   | (2/2) Accurately ripped
  5   | (2/2) Accurately ripped
  6   | (2/2) Accurately ripped
  7   | (2/2) Accurately ripped
  8   | (2/2) Accurately ripped
  9   | (2/2) Accurately ripped
 10   | (2/2) Accurately ripped
 11   | (2/2) Accurately ripped
 12   | (2/2) Accurately ripped
 13   | (2/2) Accurately ripped
==== Log checksum 59AE7ACE997867FEEB93283814E880A3BCE275A035C6571407CDCDB90B79FAD3 ====
Код:
REM DATE 2005
REM DISCID A10A1D0D
REM COMMENT "ExactAudioCopy v1.3"
PERFORMER "The Gentlemen"
TITLE "Brass City Band"
REM COMPOSER ""
FILE "01. Flame for Hire.wav" WAVE
  TRACK 01 AUDIO
    TITLE "Flame for Hire"
    PERFORMER "The Gentlemen"
    REM COMPOSER ""
    INDEX 01 00:00:00
FILE "02. Velvet Rope.wav" WAVE
  TRACK 02 AUDIO
    TITLE "Velvet Rope"
    PERFORMER "The Gentlemen"
    REM COMPOSER ""
    INDEX 01 00:00:00
  TRACK 03 AUDIO
    TITLE "Three-Minute Marriage Proposal"
    PERFORMER "The Gentlemen"
    REM COMPOSER ""
    INDEX 00 02:29:09
FILE "03. Three-Minute Marriage Proposal.wav" WAVE
    INDEX 01 00:00:00
  TRACK 04 AUDIO
    TITLE "Silver Boogie"
    PERFORMER "The Gentlemen"
    REM COMPOSER ""
    INDEX 00 03:06:38
FILE "04. Silver Boogie.wav" WAVE
    INDEX 01 00:00:00
FILE "05. He Had a Mother Tongue.wav" WAVE
  TRACK 05 AUDIO
    TITLE "He Had a Mother Tongue"
    PERFORMER "The Gentlemen"
    REM COMPOSER ""
    INDEX 01 00:00:00
FILE "06. 100 Stone.wav" WAVE
  TRACK 06 AUDIO
    TITLE "100 Stone"
    PERFORMER "The Gentlemen"
    REM COMPOSER ""
    INDEX 01 00:00:00
  TRACK 07 AUDIO
    TITLE "They Don't Exist"
    PERFORMER "The Gentlemen"
    REM COMPOSER ""
    INDEX 00 02:34:14
FILE "07. They Don't Exist.wav" WAVE
    INDEX 01 00:00:00
FILE "08. Hit That.wav" WAVE
  TRACK 08 AUDIO
    TITLE "Hit That"
    PERFORMER "The Gentlemen"
    REM COMPOSER ""
    INDEX 01 00:00:00
FILE "09. Watchdogs.wav" WAVE
  TRACK 09 AUDIO
    TITLE "Watchdogs"
    PERFORMER "The Gentlemen"
    REM COMPOSER ""
    INDEX 01 00:00:00
  TRACK 10 AUDIO
    TITLE "No Need to Leave"
    PERFORMER "The Gentlemen"
    REM COMPOSER ""
    INDEX 00 02:55:61
FILE "10. No Need to Leave.wav" WAVE
    INDEX 01 00:00:00
  TRACK 11 AUDIO
    TITLE "Creeping Secrets"
    PERFORMER "The Gentlemen"
    REM COMPOSER ""
    INDEX 00 05:18:14
FILE "11. Creeping Secrets.wav" WAVE
    INDEX 01 00:00:00
  TRACK 12 AUDIO
    TITLE "A Lot to Say"
    PERFORMER "The Gentlemen"
    REM COMPOSER ""
    INDEX 00 02:40:20
FILE "12. A Lot to Say.wav" WAVE
    INDEX 01 00:00:00
  TRACK 13 AUDIO
    TITLE "Brass City Band"
    PERFORMER "The Gentlemen"
    REM COMPOSER ""
    INDEX 00 02:44:66
FILE "13. Brass City Band.wav" WAVE
    INDEX 01 00:00:00
Код:
-----------------------
DON'T MODIFY THIS FILE
-----------------------
PERFORMER: auCDtect Task Manager, ver. 1.6.0 RC1 build 1.6.0.1
Copyright (c) 2008-2010 y-soft. All rights reserved
[url=http://y-soft.org]http://y-soft.org[/url]
ANALYZER: auCDtect: CD records authenticity detector, version 0.8.2
Copyright (c) 2004 Oleg Berngardt. All rights reserved.
Copyright (c) 2004 Alexander Djourik. All rights reserved.
FILE: 13. Brass City Band.flac
  Size: 23438883 Hash: 43B91C89BDE315304E3E63C9083676D0 Accuracy: -m0
  Conclusion: CDDA 100%
  Signature: BD291A025720F19059B1B65B1F4CDF67AB15FAB3
FILE: 12. A Lot to Say.flac
  Size: 21036110 Hash: 53E066A69996E47153F19AAD9215472A Accuracy: -m0
  Conclusion: CDDA 100%
  Signature: 1B12FF782CF5541F58F9E0278F52B6B3AFB12977
FILE: 11. Creeping Secrets.flac
  Size: 19685851 Hash: 4C57FCA02D44AFBA2C0CAE950082FEFA Accuracy: -m0
  Conclusion: CDDA 100%
  Signature: D7CF6DC62C9AB0D6ABAE1ABA805BBFCD2817B42D
FILE: 10. No Need to Leave.flac
  Size: 35874134 Hash: CAF129B2D06A9F01B65C0766C4C2485B Accuracy: -m0
  Conclusion: CDDA 100%
  Signature: 9331D059C41A9B0533D3F8B858DCA05BB44430D3
FILE: 09. Watchdogs.flac
  Size: 21940938 Hash: 4ABF041B7693894523D0899C26C4012F Accuracy: -m0
  Conclusion: CDDA 99%
  Signature: 44678B643690B06864BF0B231382B9460BC2A1BD
FILE: 08. Hit That.flac
  Size: 29294475 Hash: D8091225E5FF1B5019267F39D44CEF7E Accuracy: -m0
  Conclusion: CDDA 100%
  Signature: 475E28C941D938F71B65570AA728E5F9DBCEC94D
FILE: 07. They Don't Exist.flac
  Size: 32785011 Hash: E5C0826133DE141231B54468E97197B3 Accuracy: -m0
  Conclusion: CDDA 100%
  Signature: 37960C38086B687221A13B638144BECB704D0925
FILE: 06. 100 Stone.flac
  Size: 18683417 Hash: 021886FF46C5FE50CC0859AB18BB3302 Accuracy: -m0
  Conclusion: CDDA 99%
  Signature: 0A515C09519B13504D9A3132AB9F2D297B15A777
FILE: 05. He Had a Mother Tongue.flac
  Size: 17706333 Hash: ECD74B101470FEB24DA65EA3AC9F0F86 Accuracy: -m0
  Conclusion: CDDA 100%
  Signature: 3B101715247DDB183C00BBEB500418451BA5FFEB
FILE: 04. Silver Boogie.flac
  Size: 23757707 Hash: D5FBE0818807FD16BA71BFF772187A25 Accuracy: -m0
  Conclusion: CDDA 100%
  Signature: EE177F93B0834009EA97D454040E014AFF396CB8
FILE: 03. Three-Minute Marriage Proposal.flac
  Size: 24464884 Hash: 4B41BB41E4D1B978B91D09565EDC4B23 Accuracy: -m0
  Conclusion: CDDA 100%
  Signature: FD77701670F688F20CD5B7E592C6B7C6C70627B7
FILE: 02. Velvet Rope.flac
  Size: 18304174 Hash: D8CA45627F3992E534BD9C91B602313E Accuracy: -m0
  Conclusion: CDDA 100%
  Signature: 49B474D818B1454BF3C404D608038DC67B3B3833
FILE: 01. Flame for Hire.flac
  Size: 26874356 Hash: 2B53B9CD9BC201EFA2B567D5AEDA8B23 Accuracy: -m0
  Conclusion: CDDA 100%
  Signature: B117269D97FF29B2682CBDF97460ADF4DED5EADD
https://www.youtube.com/watch?v=5vsnC2I1yHI
https://www.youtube.com/watch?v=WWR-YU-Gz4I
Boston based band.
https://www.discogs.com/The-Gentlemen-Brass-City-Band/release/11896469
The Gentlemen's Recording Co. / TGRC-03 Year: 2005 Format: CD, Album Released: 2005
Mike Gent (vocals, guitars and keyboards) The Figgs, Graham Parker, Candy Butchers
Lucky Jackson (vocals and guitar), The Gravel Pit
Ed Valauskas (vocals and bass), Graham Parker, The Gravel Pit
Pete Caldes (drums), The Gravel Pit, The Candles, Juliana Hatfield
https://aminorobsession.weebly.com/brass-city-band.html
https://www.allmusic.com/album/brass-city-band-mw0000258303
You might be searching awhile to find a rock & roll band as loose and unassuming as the Gentlemen. Their rollicking mix of rifftastic hard rock, wall-shaking barroom rave-ups, and swaggering Southern boogie is well crafted, exciting, and catchy as heck. Brass City Band is their best record yet. Co-writers, guitarists, and vocalists Mike Gent and Lucky Jackson have written a fine batch of rockin' songs, and the band delivers them with all power of a Joe Louis punch. Try to find better American AOR in 2005 and you'll find yourself back in Brass City pretty quickly, spinning "Flame for Hire," "100 Stone," "A Lot to Say," and the take-no-prisoners title track while you drive around with your windows rolled down and various types of mayhem on your mind. —Tim Sendra, AllMusic (4/5)
Produced By - Ed Valauskas and Mike Gent
https://www.popmatters.com/gentlemen-brasscity-2495915736.html
As I write this review in late December, year-end best-of lists are popping up online and in print, full of cutting-edge artists (Animal Collective, Devendra Banhart, Kanye West) who are (justifiably) hailed for their musical adventurism. But where's the love for bands that play solid music without trying to re-invent the wheel? I'm here to offer an appreciation of one of those of those solid, dependable rock 'n' roll bands that gets overlooked come the end of the year -- Boston's the Gentlemen.
That the band -- Mike Gent (vocals, guitars and keyboards), Lucky Jackson (vocals and guitar), Ed Valauskas (vocals and bass), and Pete Caldes (drums) -- opened for the Rolling Stones this past year on their mega-tour tells you a lot of what you need to know about the Gentlemen's sound (never mind that everyone from Queens of the Stone Age to Beck to the Neville Brothers have opened for the Stones at one point or another). It's also helpful to note that Gent's other band, the Figgs, backed Graham Parker on Parker's best album in ages, 2005's Songs of No Consequence. Basically, the Gentlemen fall somewhere between the Stones' crunching blues riffs and Parker's smart-ass attitude and roots rock leanings, and the band's most recent end result, Brass City Band, is some of the finest AOR of the year.
Admittedly, it's not a sound that often raises critical eyebrows, but it's a sound the band executes well and creates with a real sense of unity and fun. Gent, Jackson, and Valauskas all write and sing their own songs, and no singer/songwriter outshines the other two. These guys are a darn good band, with heavy accent on the word "band".
The Gentlemen do a lot of the little things right. They've mastered braggadocio -- "Do yourself a favor and don't fuck with the Brass City Band!" warns Jackson on the snarling title track, the album's closer (bonus points for closing the album with a bang, not a whimper) -- but they can also convey insecurity. On the bouncy "Three-Minute Marriage Proposal", Valauskas pens some of the album's sharpest lyrics: "Let's get married in Memphis / how's next Halloween? / Cuz I'm just as scared as you / probably more / believe it's true". When's the last time a rock band sung a tune about facing up to a fear of commitment, especially a tune as high-octane as this?
They've also got a bit of a political bent, and Jackson could be a dead ringer, both vocally and lyrically, for the Waco Bros' Dean Schlabowske. "Velvet Rope" describes the line between the haves and the have-nots, while on the dark "Watchdogs", he worries about, "The eyes of the watchdogs / surveying every quotation". Like the Wacos, the Gentlemen position themselves as the voice of the common man... who likes to rock out.
Of course, the common man likes to goof off, too. On the, um, lighter side, there's "100 Stone", a barroom stomper during which Gent paints a picture of a serious overeater: "You eat the waitress / You eat the maitre d' / ... Here comes the crane to crane you away." At the risk of sounding flip, it's the best song about a morbidly obese person since Rockpile's "Knife and Fork". Meanwhile, Valauskas knocks some sense into a buddy who thinks he's got a chance with a woman who's way out of his league on "Hit That". Like any well-rounded gentleman, these Gentlemen can hold court on a wide variety of topics.
I'm all for recognizing and rewarding adventurous musical artists for their innovations, but let's be sure to give a year-end tip o' the cap to the Gentlemen, for reminding listeners that solid, fun, well-crafted rock and roll will never go out of style.
Код:
foobar2000 1.3.16 / Dynamic Range Meter 1.1.1
log date: 2017-10-19 22:30:27
--------------------------------------------------------------------------------
Analyzed: The Gentlemen / Brass City Band
--------------------------------------------------------------------------------
DR         Peak         RMS     Duration Track
--------------------------------------------------------------------------------
DR7        0.00 dB    -8.12 dB      3:51 01-Flame for Hire
DR6        0.00 dB    -7.32 dB      2:30 02-Velvet Rope
DR6        0.00 dB    -7.27 dB      3:09 03-Three-Minute Marriage Proposal
DR8        0.00 dB    -8.95 dB      3:12 04-Silver Boogie
DR7        0.00 dB    -7.87 dB      2:32 05-He Had a Mother Tongue
DR8        0.00 dB    -9.03 dB      2:35 06-100 Stone
DR7        0.00 dB    -9.24 dB      4:45 07-They Don't Exist
DR6        0.00 dB    -6.95 dB      3:49 08-Hit That
DR6        0.00 dB    -6.94 dB      2:58 09-Watchdogs
DR8        0.00 dB    -9.31 dB      5:20 10-No Need to Leave
DR7        0.00 dB    -8.44 dB      2:43 11-Creeping Secrets
DR6        0.00 dB    -7.26 dB      2:47 12-A Lot to Say
DR6        0.00 dB    -6.83 dB      2:59 13-Brass City Band
--------------------------------------------------------------------------------
Number of tracks:  13
Official DR value: DR7
Samplerate:        44100 Hz
Channels:          2
Bits per sample:   16
Bitrate:           1049 kbps
Codec:             FLAC
================================================================================
С первой песни напоминает манеру The Rolling Stones.
загрузка...
Правила, инструкции, FAQ!!!
Торрент  Добавлен [05 авг 2018, 09:25] Скачать торрент Магнет ссылка
Скачать торрент
[ Размер 25.04 КБ / Просмотров 14 ]

Статус
Проверен 
 
Размер  300.39 МБ
Приватный: Нет (DHT включён)
.torrent скачан  0
Как залить торрент? | Как скачать Torrent? | Ошибка в торренте? Качайте магнет  


     Отправить личное сообщение
   
Страница 1 из 1
Показать сообщения за:  Поле сортировки  
Начать новую тему Ответить на тему

   Похожие торренты   Автор   Ответы   Просмотры   Последнее сообщение 
В этой теме нет новых непрочитанных сообщений. Скачать торрент Проверен (Classic Rock, Glam, Art-Rock) The Sensational Alex Harvey Band - Hot City-The 1974 Unreleased Album [2009] - 2009, FLAC (tracks+.cue), lossless

в форуме Progressive & Art-Rock, Размер: 332.07 МБ, Здоровье: 100%

Anonymous

0
5|1

24
0

30 авг 2016, 22:14

Anonymous Перейти к последнему сообщению

В этой теме нет новых непрочитанных сообщений. Скачать торрент Проверен (Classic Rock & Hard Rock) Gerry Rafferty - City To City & Night Owl 2-CD (2007-remastering), APE (image+.cue), lossless

в форуме Classic Rock & Hard Rock, Размер: 638.33 МБ, Здоровье: 100%

Anonymous

0
25|7

27
1

05 сен 2016, 21:12

Anonymous Перейти к последнему сообщению

В этой теме нет новых непрочитанных сообщений. Скачать торрент Проверен (jazz rock, brass rock) [CD] The J.J.Band - The J.J.Band - 1970 (2009), FLAC (image+.cue), lossless

в форуме Progressive & Art-Rock, Размер: 250.87 МБ, Здоровье: 100%

Anonymous

0
3|1

29
0

30 авг 2016, 19:31

Anonymous Перейти к последнему сообщению

В этой теме нет новых непрочитанных сообщений. Скачать торрент Проверен Southern Gentlemen - Double Your Pleasure (2005) [FLAC|Lossless]<Hard/Blues Rock>

в форуме Рок, Панк, Метал, Альтернатива, Размер: 461.9 МБ, Здоровье: 100%

Anonymous

0
1|1

26
0

21 июл 2014, 08:43

Anonymous Перейти к последнему сообщению

В этой теме нет новых непрочитанных сообщений. Скачать торрент Проверен (Hard Rock, Blues Rock) [CD] Rival Sons - Rock 'N' Roll Excerpts Vol.1 - 2014 (Classic Rock UK), FLAC (tracks+.cue), lossless

в форуме Classic Rock & Hard Rock, Размер: 299.98 МБ, Здоровье: 100%

Anonymous

0
14|6

65
4

05 сен 2016, 20:05

Anonymous Перейти к последнему сообщению



Сейчас этот форум просматривают: нет зарегистрированных пользователей и гости: 0


Вы не можете начинать темы
Вы не можете отвечать на сообщения
Вы не можете редактировать свои сообщения
Вы не можете удалять свои сообщения
Вы не можете добавлять вложения

Перейти:  
Ресурс не предоставляет электронные версии произведений, а занимается лишь коллекционированием и каталогизацией ссылок, присылаемых и публикуемых на форуме нашими читателями. Если вы являетесь правообладателем какого-либо представленного материала и не желаете чтобы ссылка на него находилась в нашем каталоге, свяжитесь с нами и мы незамедлительно удалим её. Файлы для обмена на трекере предоставлены пользователями сайта, и администрация не несёт ответственности за их содержание. Просьба не заливать файлы, защищенные авторскими правами, а также файлы нелегального содержания!
cron