На всех торрентах на трекере установлена скидка на скачивание в размере 100 процентов(а).
 Возможность скачивания торрента НЕ зависит от ограничений при низком ратио, низком аплоаде, требуемом ратио или требуемом аплоаде.


Начать новую тему Ответить на тему
Статистика раздачи
Размер: 379.37 МБ | Добавлен: 05 авг 2018, 09:26 | Скачали: 0
Сидеров: 0  [0 байт/сек]    Личеров: 0  [0 байт/сек]
Пред. тема | След. тема 

Автор
Сообщение

СообщениеДобавлено: 05 авг 2018, 09:26 

Ответить с цитатой 

Gerry Rafferty / Night Owl
Жанр: Classiс Rock
Носитель: CD
Год издания: 1986
Издатель (лейбл): Liberty/EMI Records
Номер по каталогу: CDP 7 46610 2
Аудиокодек: FLAC (*.flac)
Тип рипа: tracks+.cue
Битрейт аудио: lossless
Продолжительность: 52:02
Источник (релизер): обмен
Наличие сканов в содержимом раздачи: да
Треклист:
01. Gerry Rafferty - Days Gone Down (6:33)
02. Gerry Rafferty - Night Owl (6:12)
03. Gerry Rafferty - The Way That You Do It (5:10)
04. Gerry Rafferty - Why Won't You Talk To Me (4:00)
05. Gerry Rafferty - Get It Right Next Time (4:44)
06. Gerry Rafferty - Take The Money And Run (5:50)
07. Gerry Rafferty - Family Tree (5:58)
08. Gerry Rafferty - Already Gone (4:56)
09. Gerry Rafferty - The Tourist (4:14)
10. Gerry Rafferty - It's Gonna Be A Long Night (4:25)
Код:
Exact Audio Copy V1.0 beta 3 from 29. August 2011
EAC extraction logfile from 11. January 2015, 18:22
Gerry Rafferty / Night Owl
Used drive  : ASUS    DRW-20B1LT   Adapter: 1  ID: 1
Read mode               : Secure
Utilize accurate stream : Yes
Defeat audio cache      : Yes
Make use of C2 pointers : No
Read offset correction                      : 6
Overread into Lead-In and Lead-Out          : No
Fill up missing offset samples with silence : Yes
Delete leading and trailing silent blocks   : No
Null samples used in CRC calculations       : Yes
Used interface                              : Native Win32 interface for Win NT & 2000
Gap handling                                : Appended to previous track
Used output format              : User Defined Encoder
Selected bitrate                : 896 kBit/s
Quality                         : High
Add ID3 tag                     : No
Command line compressor         : C:\Program Files\Exact Audio Copy\Flac\flac.exe
Additional command line options : -8 -V -T "ARTIST=%artist%" -T "TITLE=%title%" -T "ALBUM=%albumtitle%" -T "DATE=%year%" -T "TRACKNUMBER=%tracknr%" -T "GENRE=%genre%" -T "COMMENT=EAC FLAC -8" %source%
TOC of the extracted CD
     Track |   Start  |  Length  | Start sector | End sector
    ---------------------------------------------------------
        1  |  0:00.32 |  6:32.60 |        32    |    29491
        2  |  6:33.17 |  6:11.70 |     29492    |    57386
        3  | 12:45.12 |  5:09.40 |     57387    |    80601
        4  | 17:54.52 |  3:59.53 |     80602    |    98579
        5  | 21:54.30 |  4:44.25 |     98580    |   119904
        6  | 26:38.55 |  5:50.27 |    119905    |   146181
        7  | 32:29.07 |  5:58.00 |    146182    |   173031
        8  | 38:27.07 |  4:56.05 |    173032    |   195236
        9  | 43:23.12 |  4:14.10 |    195237    |   214296
       10  | 47:37.22 |  4:25.03 |    214297    |   234174
Track  1
     Filename K:\EACrips\Gerry Rafferty - Night Owl\01 - Days Gone Down.wav
     Pre-gap length  0:00:02.32
     Peak level 100.0 %
     Extraction speed 3.7 X
     Track quality 100.0 %
     Test CRC 6957462D
     Copy CRC 6957462D
     Accurately ripped (confidence 10)  [FB162EE2]  (AR v2)
     Copy OK
Track  2
     Filename K:\EACrips\Gerry Rafferty - Night Owl\02 - Night Owl.wav
     Pre-gap length  0:00:01.72
     Peak level 93.9 %
     Extraction speed 4.3 X
     Track quality 100.0 %
     Test CRC A2EC3069
     Copy CRC A2EC3069
     Accurately ripped (confidence 10)  [B649AC0D]  (AR v2)
     Copy OK
Track  3
     Filename K:\EACrips\Gerry Rafferty - Night Owl\03 - The Way That You Do It.wav
     Pre-gap length  0:00:02.15
     Peak level 93.3 %
     Extraction speed 4.6 X
     Track quality 100.0 %
     Test CRC 3C4B9C38
     Copy CRC 3C4B9C38
     Accurately ripped (confidence 10)  [E2283511]  (AR v2)
     Copy OK
Track  4
     Filename K:\EACrips\Gerry Rafferty - Night Owl\04 - Why Won't You Talk To Me.wav
     Pre-gap length  0:00:01.35
     Peak level 100.0 %
     Extraction speed 3.9 X
     Track quality 99.9 %
     Test CRC 1D1018C7
     Copy CRC 1D1018C7
     Accurately ripped (confidence 10)  [73688023]  (AR v2)
     Copy OK
Track  5
     Filename K:\EACrips\Gerry Rafferty - Night Owl\05 - Get It Right Next Time.wav
     Pre-gap length  0:00:00.45
     Peak level 100.0 %
     Extraction speed 5.2 X
     Track quality 100.0 %
     Test CRC FDD405F5
     Copy CRC FDD405F5
     Accurately ripped (confidence 10)  [1658E45F]  (AR v2)
     Copy OK
Track  6
     Filename K:\EACrips\Gerry Rafferty - Night Owl\06 - Take The Money And Run.wav
     Pre-gap length  0:00:02.00
     Peak level 100.0 %
     Extraction speed 5.6 X
     Track quality 100.0 %
     Test CRC DCD9C0CB
     Copy CRC DCD9C0CB
     Accurately ripped (confidence 10)  [CB1D12F4]  (AR v2)
     Copy OK
Track  7
     Filename K:\EACrips\Gerry Rafferty - Night Owl\07 - Family Tree.wav
     Pre-gap length  0:00:00.02
     Peak level 100.0 %
     Extraction speed 6.0 X
     Track quality 100.0 %
     Test CRC F5F03789
     Copy CRC F5F03789
     Accurately ripped (confidence 10)  [83C4DC86]  (AR v2)
     Copy OK
Track  8
     Filename K:\EACrips\Gerry Rafferty - Night Owl\08 - Already Gone.wav
     Pre-gap length  0:00:01.40
     Peak level 100.0 %
     Extraction speed 6.1 X
     Track quality 100.0 %
     Test CRC E0A0831C
     Copy CRC E0A0831C
     Accurately ripped (confidence 10)  [BEF47463]  (AR v2)
     Copy OK
Track  9
     Filename K:\EACrips\Gerry Rafferty - Night Owl\09 - The Tourist.wav
     Pre-gap length  0:00:01.25
     Peak level 100.0 %
     Extraction speed 6.2 X
     Track quality 100.0 %
     Test CRC 7C522150
     Copy CRC 7C522150
     Accurately ripped (confidence 10)  [6CED9013]  (AR v2)
     Copy OK
Track 10
     Filename K:\EACrips\Gerry Rafferty - Night Owl\10 - It's Gonna Be A Long Night.wav
     Pre-gap length  0:00:00.02
     Peak level 100.0 %
     Extraction speed 6.5 X
     Track quality 100.0 %
     Test CRC F5AAC9E5
     Copy CRC F5AAC9E5
     Accurately ripped (confidence 9)  [D603133C]  (AR v2)
     Copy OK
All tracks accurately ripped
No errors occurred
End of status report
==== Log checksum 67BAAD28E773E1F080ABF7B840B10B25D066FBD09EC87695C505F7CA5155FD2B ====
Код:
REM GENRE Rock
REM DATE 1979
REM DISCID 8A0C320A
REM COMMENT "ExactAudioCopy v1.0b3"
PERFORMER "Gerry Rafferty"
TITLE "Night Owl"
FILE "01 - Days Gone Down.wav" WAVE
  TRACK 01 AUDIO
    TITLE "Days Gone Down"
    PERFORMER "Gerry Rafferty"
    PREGAP 00:00:32
    INDEX 01 00:00:00
  TRACK 02 AUDIO
    TITLE "Night Owl"
    PERFORMER "Gerry Rafferty"
    INDEX 00 06:30:63
FILE "02 - Night Owl.wav" WAVE
    INDEX 01 00:00:00
  TRACK 03 AUDIO
    TITLE "The Way That You Do It"
    PERFORMER "Gerry Rafferty"
    INDEX 00 06:09:55
FILE "03 - The Way That You Do It.wav" WAVE
    INDEX 01 00:00:00
  TRACK 04 AUDIO
    TITLE "Why Won't You Talk To Me"
    PERFORMER "Gerry Rafferty"
    INDEX 00 05:08:05
FILE "04 - Why Won't You Talk To Me.wav" WAVE
    INDEX 01 00:00:00
  TRACK 05 AUDIO
    TITLE "Get It Right Next Time"
    PERFORMER "Gerry Rafferty"
    INDEX 00 03:59:08
FILE "05 - Get It Right Next Time.wav" WAVE
    INDEX 01 00:00:00
  TRACK 06 AUDIO
    TITLE "Take The Money And Run"
    PERFORMER "Gerry Rafferty"
    INDEX 00 04:42:25
FILE "06 - Take The Money And Run.wav" WAVE
    INDEX 01 00:00:00
  TRACK 07 AUDIO
    TITLE "Family Tree"
    PERFORMER "Gerry Rafferty"
    INDEX 00 05:50:25
FILE "07 - Family Tree.wav" WAVE
    INDEX 01 00:00:00
  TRACK 08 AUDIO
    TITLE "Already Gone"
    PERFORMER "Gerry Rafferty"
    INDEX 00 05:56:35
FILE "08 - Already Gone.wav" WAVE
    INDEX 01 00:00:00
  TRACK 09 AUDIO
    TITLE "The Tourist"
    PERFORMER "Gerry Rafferty"
    INDEX 00 04:54:55
FILE "09 - The Tourist.wav" WAVE
    INDEX 01 00:00:00
  TRACK 10 AUDIO
    TITLE "It's Gonna Be A Long Night"
    PERFORMER "Gerry Rafferty"
    INDEX 00 04:14:08
FILE "10 - It's Gonna Be A Long Night.wav" WAVE
    INDEX 01 00:00:00
загрузка...
Правила, инструкции, FAQ!!!
Торрент  Добавлен [05 авг 2018, 09:26] Скачать торрент Магнет ссылка
Скачать торрент
[ Размер 16.35 КБ / Просмотров 30 ]

Статус
Проверен 
 
Размер  379.37 МБ
Приватный: Нет (DHT включён)
.torrent скачан  0
Как залить торрент? | Как скачать Torrent? | Ошибка в торренте? Качайте магнет  


     Отправить личное сообщение
   
Страница 1 из 1
Показать сообщения за:  Поле сортировки  
Начать новую тему Ответить на тему

   Похожие торренты   Автор   Ответы   Просмотры   Последнее сообщение 
В этой теме нет новых непрочитанных сообщений. Скачать торрент Проверен (Classic Rock & Hard Rock) Gerry Rafferty - City To City & Night Owl 2-CD (2007-remastering), APE (image+.cue), lossless

в форуме Classic Rock & Hard Rock, Размер: 638.33 МБ, Здоровье: 100%

Anonymous

0
25|7

27
1

05 сен 2016, 21:12

Anonymous Перейти к последнему сообщению

В этой теме нет новых непрочитанных сообщений. Скачать торрент Проверен (Classic Rock) [CD] Gerry Rafferty - City To City - 1978 (1988), FLAC (tracks+.cue), lossless

в форуме Classic Rock & Hard Rock, Размер: 327.84 МБ, Здоровье: 0%

Anonymous

0
0|0

5
0

05 авг 2018, 09:25

Anonymous Перейти к последнему сообщению

В этой теме нет новых непрочитанных сообщений. Скачать торрент Проверен (Classic Rock) Gerry Rafferty - Snakes and Ladders (1980), WAVPack (image+.cue), lossless

в форуме Classic Rock & Hard Rock, Размер: 325.09 МБ, Здоровье: 100%

Anonymous

0
13|3

17
0

05 сен 2016, 21:12

Anonymous Перейти к последнему сообщению

В этой теме нет новых непрочитанных сообщений. Скачать торрент Проверен (Folk Rock) [LP][24/96] Gerry Rafferty - Can I Have My Money Back? - 1971, FLAC (tracks)

в форуме Зарубежный рок (оцифровки), Размер: 746.73 МБ, Здоровье: 0%

Anonymous

0
0|0

18
0

24 авг 2016, 15:12

Anonymous Перейти к последнему сообщению

В этой теме нет новых непрочитанных сообщений. Скачать торрент Проверен (Singer/Songwriter, Rock, Pop Rock, Folk Rock) Gerry Rafferty - Can I Have My Money Back - 1971 (2006 Sanctuary Records Group, CMRCD 1325), FLAC (tracks+.cue), lossless

в форуме Classic Rock & Hard Rock, Размер: 635.45 МБ, Здоровье: 100%

Anonymous

0
5|1

29
1

05 сен 2016, 21:12

Anonymous Перейти к последнему сообщению



Сейчас этот форум просматривают: нет зарегистрированных пользователей и гости: 0


Вы не можете начинать темы
Вы не можете отвечать на сообщения
Вы не можете редактировать свои сообщения
Вы не можете удалять свои сообщения
Вы не можете добавлять вложения

Перейти:  
Ресурс не предоставляет электронные версии произведений, а занимается лишь коллекционированием и каталогизацией ссылок, присылаемых и публикуемых на форуме нашими читателями. Если вы являетесь правообладателем какого-либо представленного материала и не желаете чтобы ссылка на него находилась в нашем каталоге, свяжитесь с нами и мы незамедлительно удалим её. Файлы для обмена на трекере предоставлены пользователями сайта, и администрация не несёт ответственности за их содержание. Просьба не заливать файлы, защищенные авторскими правами, а также файлы нелегального содержания!
cron