На всех торрентах на трекере установлена скидка на скачивание в размере 100 процентов(а).
 Возможность скачивания торрента НЕ зависит от ограничений при низком ратио, низком аплоаде, требуемом ратио или требуемом аплоаде.


Начать новую тему Ответить на тему
Статистика раздачи
Размер: 7.79 ГБ | Добавлен: 12 авг 2018, 16:13 | Скачали: 85
Сидеров: 67  [0 байт/сек]    Личеров: 31  [0 байт/сек]
Пред. тема | След. тема 

Автор
Сообщение

СообщениеДобавлено: 12 авг 2018, 16:13 

Ответить с цитатой 

Название: Черная кошка, белый кот
Оригинальное название: Crna mačka, beli mačor
Год выпуска: 1998
Жанр: мелодрама, комедия, криминал
Режиссер: Эмир Кустурица
В ролях: Байрам Севердзан (Matko Destanov), Срджан Тодорович (Dadan Karambolo), Бранка Катич (Ida), Флориян Айдини (Zare Destanov), Любица Аджович (Sujka), Забит Мемедов (Zarije Destanov), Сабри Сулеймани (Grga Pitic), Ясар Дестани (Grga Veliki), Стоян Сотиров (Customs Officer), Предраг Лакович (Priest), Мики Манойлович (Priest), Салия Ибраимова (Ladybird)
О фильме: Два цыганских барона, сколотившие свои состояния на темных делишках, тем не менее умудрились сохранить взаимное уважение и искреннюю дружбу, хотя и не виделись 25 лет. И теперь, разменяв девятый десяток, им приходится расхлебывать кашу, которую заварили их многочисленные потомки.

Миллионные сделки с мафией, погони за убежавшими невестами, безумные цыганские праздники и дерзкие ограбления, пламенная любовь и хладнокровный обман — все это снова вовлекает их в стремительный круговорот жизни. Такая сумасшедшая гонка и мертвого может поднять из могилы…

MPAA: R - Лицам до 17 лет обязательно присутствие взрослого
Страна: Югославия (ФР), Франция, Германия, Австрия, Греция
Студия: Österreichischer Rundfunk (ORF), Bayerischer Rundfunk (BR), Canal+ [fr], CiBy 2000
Продолжительность: 02:03:38
Перевод: Профессиональный (многоголосый, закадровый), Профессиональный (двухголосый, закадровый), Авторский (одноголосый, закадровый)
Файл
Качество: WEB-DL 1080p | AJP69
Формат: Matroska
Видео: 1920x1040 at 25.000 fps, MPEG-4 AVC, ~7000 kbps avg
Аудио#1: Russian: 48 kHz, AC3, 3/2 (L,C,R,l,r) + LFE ch, ~448 kbps avg |Многоголосый закадровый, Инис|
Аудио#2: Russian: 48 kHz, AC3, 3/2 (L,C,R,l,r) + LFE ch, ~384 kbps avg |Двухголосый закадровый, Екатеринбург Арт|
Аудио#3: Russian: 48 kHz, AC3, 2/0 (L,R) ch, ~192 kbps avg |Двухголосый закадровый, REN-TV|
Аудио#4: Russian: 48 kHz, MP3, 2/0 (L,R) ch, ~128 kbps avg |Многоголосый закадровый, СТС|
Аудио#5: Russian: 48 kHz, MP3, 2/0 (L,R) ch, ~128 kbps avg |Многоголосый закадровый, В.Андреев и др.|
Аудио#6: Russian: 48 kHz, AC3, 2/0 (L,R) ch, ~192 kbps avg |Авторский, Ю.Сербин|
Аудио#7: Multi: 48 kHz, EAC3, 3/2 (L,C,R,l,r) + LFE ch, ~640 kbps avg
Субтитры: Russian, English
***Сборка, синхронизация звука и субтитров - whip93.
Рабочее название фильма - «Акробатическая музыка».
Фильм, отрывок из которого смотрит Грга, где звучит фраза «Я думаю, это послужит началом большой дружбы», которую он каждый раз повторяет - это «Касабланка».
Когда бабушка Иды зачитывает список подарков на свадьбу, она произносит: «Кухонные весы и маленькая лодка от Эмира Кустурицы».
[*]Название ресторана «Црни обелиск» взято из романа Э. М. Ремарка «Черный обелиск», а дама, извлекающая гвоздь, ни кто иная, как жена Карла Бриля - фрау Бекман.
Общее
Уникальный идентификатор : 138225841283529680331462916780361193411 (0x67FD54247A4FA97FF857FF911E4B17C3)
Полное имя : Black.Cat.White.Cat.1998.1080p.WEB-DL.DD5.1.H.264.-whip93.mkv
Формат : Matroska
Версия формата : Version 4 / Version 2
Размер файла : 7,79 Гбайт
Продолжительность : 2 ч. 3 м.
Режим общего битрейта : Переменный
Общий поток : 9013 Кбит/сек
Название фильма : Чёрная кошка, белый кот | Black Cat, White Cat (1998) - Release by whip93
Дата кодирования : UTC 2018-08-11 18:44:28
Программа кодирования : mkvmerge v22.0.0 ('At The End Of The World') 64-bit
Библиотека кодирования : libebml v1.3.5 + libmatroska v1.4.8

Видео
Идентификатор : 1
Формат : AVC
Формат/Информация : Advanced Video Codec
Профиль формата : High@L4.0
Параметр CABAC формата : Да
Параметр ReFrames формата : 4 кадра
Идентификатор кодека : V_MPEG4/ISO/AVC
Продолжительность : 2 ч. 3 м.
Вид битрейта : Переменный
Битрейт : 6722 Кбит/сек
Максимальный битрейт : 15,0 Мбит/сек
Ширина : 1920 пикселей
Высота : 1040 пикселей
Соотношение сторон : 1,85:1
Режим частоты кадров : Постоянный
Частота кадров : 25,000 кадров/сек
Цветовое пространство : YUV
Субдискретизация насыщенности : 4:2:0
Битовая глубина : 8 бит
Тип развёртки : Прогрессивная
Бит/(Пиксели*Кадры) : 0.135
Размер потока : 5,81 Гбайт (75%)
Заголовок : AJP69's WEB-DL
Язык : English
Default : Да
Forced : Нет
Основные цвета : BT.709
Характеристики трансфера : BT.709
Коэффициенты матрицы : BT.709

Аудио #1
Идентификатор : 2
Формат : AC-3
Формат/Информация : Audio Coding 3
Расширение режима : CM (complete main)
Параметр Endianness формата : Big
Идентификатор кодека : A_AC3
Продолжительность : 2 ч. 3 м.
Вид битрейта : Постоянный
Битрейт : 448 Кбит/сек
Каналы : 6 каналов
Расположение каналов : Front: L C R, Side: L R, LFE
Частота : 48,0 КГц
Битовая глубина : 16 бит
Метод сжатия : С потерями
Размер потока : 396 Мбайт (5%)
Заголовок : MVO (Инис)
Язык : Russian
Default : Нет
Forced : Нет

Аудио #2
Идентификатор : 3
Формат : AC-3
Формат/Информация : Audio Coding 3
Расширение режима : CM (complete main)
Параметр Endianness формата : Big
Идентификатор кодека : A_AC3
Продолжительность : 2 ч. 3 м.
Вид битрейта : Постоянный
Битрейт : 384 Кбит/сек
Каналы : 6 каналов
Расположение каналов : Front: L C R, Side: L R, LFE
Частота : 48,0 КГц
Битовая глубина : 16 бит
Метод сжатия : С потерями
Размер потока : 340 Мбайт (4%)
Заголовок : DVO (Екатеринбург Арт)
Язык : Russian
Default : Нет
Forced : Нет

Аудио #3
Идентификатор : 4
Формат : AC-3
Формат/Информация : Audio Coding 3
Расширение режима : CM (complete main)
Параметр Endianness формата : Big
Идентификатор кодека : A_AC3
Продолжительность : 2 ч. 3 м.
Вид битрейта : Постоянный
Битрейт : 192 Кбит/сек
Каналы : 2 канала
Расположение каналов : Front: L R
Частота : 48,0 КГц
Битовая глубина : 16 бит
Метод сжатия : С потерями
Размер потока : 170 Мбайт (2%)
Заголовок : MVO (REN-TV)
Язык : Russian
Default : Нет
Forced : Нет

Аудио #4
Идентификатор : 5
Формат : MPEG Audio
Версия формата : Version 1
Профиль формата : Layer 3
Идентификатор кодека : A_MPEG/L3
Идентификатор кодека/Подсказка : MP3
Продолжительность : 2 ч. 3 м.
Вид битрейта : Постоянный
Битрейт : 128 Кбит/сек
Каналы : 2 канала
Частота : 48,0 КГц
Метод сжатия : С потерями
Размер потока : 113 Мбайт (1%)
Заголовок : MVO (СТС)
Язык : Russian
Default : Нет
Forced : Нет

Аудио #5
Идентификатор : 6
Формат : MPEG Audio
Версия формата : Version 1
Профиль формата : Layer 3
Идентификатор кодека : A_MPEG/L3
Идентификатор кодека/Подсказка : MP3
Продолжительность : 2 ч. 3 м.
Вид битрейта : Постоянный
Битрейт : 128 Кбит/сек
Каналы : 2 канала
Частота : 48,0 КГц
Метод сжатия : С потерями
Размер потока : 113 Мбайт (1%)
Заголовок : MVO (В. Андреев и др.)
Язык : Russian
Default : Нет
Forced : Нет

Аудио #6
Идентификатор : 7
Формат : AC-3
Формат/Информация : Audio Coding 3
Расширение режима : CM (complete main)
Параметр Endianness формата : Big
Идентификатор кодека : A_AC3
Продолжительность : 2 ч. 3 м.
Вид битрейта : Постоянный
Битрейт : 192 Кбит/сек
Каналы : 2 канала
Расположение каналов : Front: L R
Частота : 48,0 КГц
Битовая глубина : 16 бит
Метод сжатия : С потерями
Размер потока : 170 Мбайт (2%)
Заголовок : AVO (Ю. Сербин)
Язык : Russian
Default : Нет
Forced : Нет

Аудио #7
Идентификатор : 8
Формат : E-AC-3
Формат/Информация : Audio Coding 3
Параметр Endianness формата : Big
Идентификатор кодека : A_EAC3
Продолжительность : 2 ч. 3 м.
Вид битрейта : Постоянный
Битрейт : 640 Кбит/сек
Каналы : 6 каналов
Расположение каналов : Front: L C R, Side: L R, LFE
Частота : 48,0 КГц
Метод сжатия : С потерями
Размер потока : 566 Мбайт (7%)
Заголовок : Original
Язык : Несколько языков
Default : Нет
Forced : Нет

Текст #1
Идентификатор : 9
Формат : UTF-8
Идентификатор кодека : S_TEXT/UTF8
Идентификатор кодека/Информация : UTF-8 Plain Text
Заголовок : Екатеринбург Арт
Язык : Russian
Default : Нет
Forced : Нет

Текст #2
Идентификатор : 10
Формат : UTF-8
Идентификатор кодека : S_TEXT/UTF8
Идентификатор кодека/Информация : UTF-8 Plain Text
Заголовок : Союз-Видео
Язык : Russian
Default : Нет
Forced : Нет

Текст #3
Идентификатор : 11
Формат : UTF-8
Идентификатор кодека : S_TEXT/UTF8
Идентификатор кодека/Информация : UTF-8 Plain Text
Заголовок : English
Язык : English
Default : Нет
Forced : Нет
загрузка...
Правила, инструкции, FAQ!!!
Торрент  Добавлен [12 авг 2018, 16:13] Скачать торрент Магнет ссылка
Скачать торрент
[ Размер 39.93 КБ / Просмотров 3 ]

Статус
Проверен 
 
Размер  7.79 ГБ
Приватный: Нет (DHT включён)
.torrent скачан  85
Как залить торрент? | Как скачать Torrent? | Ошибка в торренте? Качайте магнет  


     Отправить личное сообщение
   
Страница 1 из 1
Показать сообщения за:  Поле сортировки  
Начать новую тему Ответить на тему

   Похожие торренты   Автор   Ответы   Просмотры   Последнее сообщение 
В этой теме нет новых непрочитанных сообщений. Скачать торрент Проверен Чёрная кошка, белый кот / Crna macka, beli macor (1998) DVDRip | P

в форуме Драмы, Мелодрамы, Размер: 1.45 ГБ, Здоровье: 100%

Гость

0
25|3

11
0

12 авг 2018, 16:19

Гость Перейти к последнему сообщению

В этой теме нет новых непрочитанных сообщений. Скачать торрент Проверен [iPhone] Черная кошка, белый кот / Crna macka, beli macor (Эмир Кустурица / Emir Kusturica) [1998 г., комедия, мелодрама, музыка, DVDRip]

в форуме Фильмы для iPod, iPhone, iPad, Размер: 888.84 МБ, Здоровье: 100%

Anonymous

0
38|9

110
1

18 май 2015, 10:56

Anonymous Перейти к последнему сообщению

В этой теме нет новых непрочитанных сообщений. Скачать торрент Проверен Чёрная кошка - Маринина А. - Не мешайте палачу [1998, PDF/DjVu, RUS]

в форуме Детективы и Боевики, Размер: 37.46 МБ, Здоровье: 100%

Anonymous

0
108|7

38
2

09 сен 2016, 00:08

Anonymous Перейти к последнему сообщению

В этой теме нет новых непрочитанных сообщений. Скачать торрент Проверен (Шансон) Чёрная кошка (3 альбома) 2003, MP3, 320 kbps

в форуме Шансон|Авторская песня, Размер: 470.3 МБ, Здоровье: 100%

Anonymous

0
12|3

122
3

05 ноя 2016, 18:44

Anonymous Перейти к последнему сообщению

В этой теме нет новых непрочитанных сообщений. Скачать торрент Проверен Чёрная кошка - Леонов Н. - Ловушка [1997, PDF/DjVu, RUS]

в форуме Детективы и Боевики, Размер: 54.86 МБ, Здоровье: 100%

Anonymous

0
10|3

65
0

08 сен 2016, 22:01

Anonymous Перейти к последнему сообщению



Сейчас этот форум просматривают: нет зарегистрированных пользователей и гости: 1


Вы не можете начинать темы
Вы не можете отвечать на сообщения
Вы не можете редактировать свои сообщения
Вы не можете удалять свои сообщения
Вы не можете добавлять вложения

Перейти:  
Ресурс не предоставляет электронные версии произведений, а занимается лишь коллекционированием и каталогизацией ссылок, присылаемых и публикуемых на форуме нашими читателями. Если вы являетесь правообладателем какого-либо представленного материала и не желаете чтобы ссылка на него находилась в нашем каталоге, свяжитесь с нами и мы незамедлительно удалим её. Файлы для обмена на трекере предоставлены пользователями сайта, и администрация не несёт ответственности за их содержание. Просьба не заливать файлы, защищенные авторскими правами, а также файлы нелегального содержания!
cron