На всех торрентах на трекере установлена скидка на скачивание в размере 100 процентов(а).
 Возможность скачивания торрента НЕ зависит от ограничений при низком ратио, низком аплоаде, требуемом ратио или требуемом аплоаде.


Начать новую тему Ответить на тему
Статистика раздачи
Размер: 2.83 ГБ | Добавлен: 21 окт 2014, 20:59 | Скачали: 0
Сидеров: 67  [0 байт/сек]    Личеров: 21  [0 байт/сек]
Пред. тема | След. тема 

Автор
Сообщение

СообщениеДобавлено: 21 окт 2014, 20:59 

Ответить с цитатой 

Жанр: Фантастика
Год выпуска: 1980
Продолжительность: 02:20:09

Режиссёр: Ричард Викторов

В ролях: Елена Метелкина, Вадим Ледогоров, Уилдис Лиелдидж, Елена Фадеева, Вацлав Дворжецкий, Александр Лазарев, Надежда Семенцова, Игорь Ясулович, Глеб Стриженов, Борис Щербаков, Александр Михайлов, Николай Викторов

Описание: В таинственных глубинах Вселенной патрульный звездолет «Пушкин» обнаруживает космический корабль неизвестной землянам конструкции. На корабле находят полностью разрушенную лабораторию по клонированию человекоподобных существ. Среди погибших инопланетян оказывается один выживший искусственный гуманоид — девушка Нийя. На Земле выясняется, что в мозг инопланетянки зашит пульт управления, призванный гарантировать точное выполнение «особой миссии». Он начинает действовать в тот момент, когда Нийа в составе земной экспедиции высаживается на своей родной планете Десса…

— Награда Вильнюсского университета за лучший фильм на тему науки на ВКФ (Вильнюс, 1982);
— Специальный приз жюри Серебряный астероид Елене Метелкиной за лучшую женскую роль МКФ научно-фантастических фильмов (Триест, 1982);
— Госпремия СССР за произведения для детей (1982)



Качество видео: DVDRip-AVC
Формат видео: MKV

Видео: 696х554@1024х554, (1,85:1), 25.000 fps, AVC, ~2500 Kbps
Аудио: Russian; 48.0 kHz, AC-3, 6 ch, 384 kbps
raw [info]: 696x554p 483:328 @ 25/1 fps (cfr)
x264 [info]: using SAR=483/328
x264 [info]: using cpu capabilities: MMX2 SSE2Fast SSSE3 SSE4.2 AVX
x264 [info]: profile High, level 4.1

x264 [info]: frame I:1326 Avg QP:14.44 size: 71550
x264 [info]: frame P:44692 Avg QP:17.06 size: 29326
x264 [info]: frame B:164212 Avg QP:18.45 size: 7445
Общее
Уникальный идентификатор : 193008169280599352137231400406931103704 (0x9134057223D0A183B7F3654E17865FD8)
Полное имя : D:\Через тернии к звёздам_1980-DVDRip-AVC.mkv
Формат : Matroska
Версия формата : Version 2
Размер файла : 2,83 Гбайт
Продолжительность : 2 ч. 20 м.
Общий поток : 2886 Кбит/сек
Дата кодирования : UTC 2014-03-15 12:32:22
Программа кодирования : mkvmerge v5.1.0 ('And so it goes') built on Nov 28 2011 23:58:28
Библиотека кодирования : libebml v1.2.3 + libmatroska v1.3.0

Видео
Идентификатор : 1
Формат : AVC
Формат/Информация : Advanced Video Codec
Профиль формата : High@L4.1
Параметр CABAC формата : Да
Параметр ReFrames формата : 14 кадров
Идентификатор кодека : V_MPEG4/ISO/AVC
Продолжительность : 2 ч. 20 м.
Битрейт : 2500 Кбит/сек
Ширина : 696 пикселей
Высота : 554 пикселя
Соотношение сторон : 1,85:1
Соотношение сторон в оригинале : 1,85:1
Режим частоты кадров : Постоянный
Частота кадров : 25,000 кадров/сек
Цветовое пространство : YUV
Субдискретизация насыщенности : 4:2:0
Битовая глубина : 8 бит
Тип развёртки : Прогрессивная
Бит/(Пиксели*Кадры) : 0.259
Размер потока : 2,39 Гбайт (85%)
Библиотека кодирования : x264 core 142 r2389 956c8d8
Настройки программы : cabac=1 / ref=14 / deblock=1:-2:-2 / analyse=0x3:0x133 / me=umh / subme=11 / psy=1 / psy_rd=1.10:0.20 / mixed_ref=1 / me_range=24 / chroma_me=1 / trellis=2 / 8x8dct=1 / cqm=0 / deadzone=21,11 / fast_pskip=0 / chroma_qp_offset=-3 / threads=12 / lookahead_threads=2 / sliced_threads=0 / nr=0 / decimate=0 / interlaced=0 / bluray_compat=0 / constrained_intra=0 / bframes=7 / b_pyramid=2 / b_adapt=2 / b_bias=0 / direct=3 / weightb=1 / open_gop=0 / weightp=2 / keyint=250 / keyint_min=25 / scenecut=40 / intra_refresh=0 / rc_lookahead=60 / rc=2pass / mbtree=1 / bitrate=2500 / ratetol=1.0 / qcomp=0.70 / qpmin=0 / qpmax=39 / qpstep=4 / cplxblur=20.0 / qblur=0.5 / ip_ratio=1.30 / aq=1:1.00
Default : Да
Forced : Нет
Основные цвета : BT.601 PAL
Характеристики трансфера : BT.470 System B, BT.470 System G
Коэффициенты матрицы : BT.601

Аудио
Идентификатор : 2
Формат : AC-3
Формат/Информация : Audio Coding 3
Расширение режима : CM (complete main)
Параметр Endianness формата : Big
Идентификатор кодека : A_AC3
Продолжительность : 2 ч. 20 м.
Вид битрейта : Постоянный
Битрейт : 384 Кбит/сек
Каналы : 6 каналов
Расположение каналов : Front: L C R, Side: L R, LFE
Частота : 48,0 КГц
Битовая глубина : 16 бит
Метод сжатия : С потерями
Размер потока : 385 Мбайт (13%)
Язык : Russian
Default : Да
Forced : Нет
загрузка...
Правила, инструкции, FAQ!!!
Торрент  Добавлен [21 окт 2014, 20:59] Скачать торрент Магнет ссылка
Скачать торрент
[ Размер 14.65 КБ / Просмотров 24 ]

Статус
Проверен 
 
Размер  2.83 ГБ
Приватный: Нет (DHT включён)
.torrent скачан  0
Как залить торрент? | Как скачать Torrent? | Ошибка в торренте? Качайте магнет  


     Отправить личное сообщение
   
Страница 1 из 1
Показать сообщения за:  Поле сортировки  
Начать новую тему Ответить на тему

   Похожие торренты   Автор   Ответы   Просмотры   Последнее сообщение 
В этой теме нет новых непрочитанных сообщений. Скачать торрент Проверен Валентин Пикуль | Исторические миниатюры. Через тернии – к звёздам [2011] [MP3]

в форуме Историческая, Размер: 952.92 МБ, Здоровье: 100%

Гость

0
45|2

216
4

07 янв 2015, 22:44

Гость Перейти к последнему сообщению

В этой теме нет новых непрочитанных сообщений. Скачать торрент Проверен (Ретро/Эстрада) VA - Через Тернии к Звездам - Песни о Космосе - 2009, MP3 (tracks), 320 kbps

в форуме Советская эстрада, Размер: 160.58 МБ, Здоровье: 100%

Anonymous

0
4|1

38
0

30 июл 2017, 10:08

Anonymous Перейти к последнему сообщению

В этой теме нет новых непрочитанных сообщений. Скачать торрент Проверен Пикуль Валентин - Исторические миниатюры. Через тернии – к звездам [Александр Клюквин, Алексей Борзунов, 2011, История, 128 kbps]

в форуме Аудиокниги (AAC, ALAC), Размер: 932.54 МБ, Здоровье: 100%

Anonymous

0
137|11

116
3

28 авг 2016, 19:39

Anonymous Перейти к последнему сообщению

В этой теме нет новых непрочитанных сообщений. Скачать торрент Проверен Звездные войны: Сага / Star Wars: The Complete Saga (Джордж Лукас, Ирвин Кершнер, Ричард Маркуэнд) [1977, 1980, 1983, 1999, 2002, 2005 гг., фантастика, фэнтези, боевик, приключения BDRip SD 480p] DUB, MVO, AVO + Original + SUB (rus, eng)

в форуме Фильмы для iPod, iPhone, iPad, Размер: 11.66 ГБ, Здоровье: 92%

Anonymous

0
13|14

99
3

24 дек 2017, 22:29

Anonymous Перейти к последнему сообщению

В этой теме нет новых непрочитанных сообщений. Скачать торрент Бегущие к звездам / Star Runners (Мэт Кинг / Mat King) [2009 г., Фантастика, боевик, SATRip]

в форуме Фантастика, Фэнтези, Размер: 1.09 ГБ, Здоровье: 100%

Anonymous

0
9|3

114
1

15 апр 2014, 08:18

Anonymous Перейти к последнему сообщению



Сейчас этот форум просматривают: нет зарегистрированных пользователей и гости: 0


Вы не можете начинать темы
Вы не можете отвечать на сообщения
Вы не можете редактировать свои сообщения
Вы не можете удалять свои сообщения
Вы не можете добавлять вложения

Перейти:  
Ресурс не предоставляет электронные версии произведений, а занимается лишь коллекционированием и каталогизацией ссылок, присылаемых и публикуемых на форуме нашими читателями. Если вы являетесь правообладателем какого-либо представленного материала и не желаете чтобы ссылка на него находилась в нашем каталоге, свяжитесь с нами и мы незамедлительно удалим её. Файлы для обмена на трекере предоставлены пользователями сайта, и администрация не несёт ответственности за их содержание. Просьба не заливать файлы, защищенные авторскими правами, а также файлы нелегального содержания!
cron