На всех торрентах на трекере установлена скидка на скачивание в размере 100 процентов(а).
 Возможность скачивания торрента НЕ зависит от ограничений при низком ратио, низком аплоаде, требуемом ратио или требуемом аплоаде.


Начать новую тему Ответить на тему
Статистика раздачи
Размер: 4.4 ГБ | Добавлен: 29 дек 2014, 23:40 | Скачали: 3
Сидеров: 15  [0 байт/сек]    Личеров: 1  [0 байт/сек]
Пред. тема | След. тема 

Автор
Сообщение

СообщениеДобавлено: 29 дек 2014, 23:40 

Ответить с цитатой 

Оригинальное название: Чебурашка и крокодил Гена. Сборник мультфильмов
Год выпуска: 1967-1983
Жанр: Детский, кукольный
Страна: СССР
Режиссер: Роман Качанов
В ролях: Василий Ливанов, Клара Румянова, В. Раутбарт, Владимир Кенигсон, Т. Дмитриева, Владимир Ферапонтов, И. Мазинг, Юрий Андреев, Георгий Бурков
Персонажи: Чебурашка, Крокодил Гена и старуха Шапокляк
Язык: Русский

О фильме: Добрый крокодил Гена работал в зоопарке... крокодилом, а по вечерам очень тосковал от одиночества, пока не дал объявление о том, что ищет друзей. И друзья появились - девочка с собачкой и Чебурашка - неизвестное науке создание, но зато доброе и милое. И вскоре начались у них удивительные приключения, о которых поведал в своей сказке замечательный детский писатель Эдуард Успенский. Также здесь вы найдете еще один нежный и трогательный мультфильм "Варежка", созданный по сценарию Жанны Витензон. Детская мечта, фантазия и реальная действительность благодаря таланту мультипликаторов органично переплелись в художественном произведении.

Продолжительность: 01:16:37
Качество видео: BDRip

Видеокодек: MPEG-4 AVC
Битрейт видео: ~7000 Кбит/сек
Размер кадра: 1424х1072 (4:3)
Аудио #1: AC-3, 48.0 KHz, 6 ch, 448 Kbps, CBR (Russian)
Аудио #2: PCM, 48.0 KHz, CBR (Russian)
Крокодил Гена

Год выхода: 1969
Жанр: детский, кукольный
Режиссер: Роман Качанов
В ролях: Василий Ливанов, Клара Румянова, Владимир Раутбарт, Владимир Кенигсон, Тамара Дмитриева
Описание:
Знаменитая мультипликационная экранизация произведений Эдуарда Успенского.

Видео: AVC, 1424x1072 (4/3), 25.000 fps, 7 000 Kbps (0.183 bit/pixel)
Аудио #1: AC-3, 48.0 KHz, 6 ch, 448 Kbps, CBR (Russian)
Аудио #2: PCM, 48.0 KHz, CBR (Russian)
Чебурашка

Год выхода: 1972
Жанр: детский, кукольный
Режиссер: Роман Качанов
В ролях: Тамара Дмитриева, Василий Ливанов, Клара Румянова, Владимир Ферапонтов
Описание:
Приключения доброго крокодила Гены и его друга Чебурашки - неизвестного науке зверя, но зато доброго и милого.

Видео: AVC, 1424x1072 (4/3), 25.000 fps, 7 000 Kbps (0.183 bit/pixel)
Аудио #1: AC-3, 48.0 KHz, 6 ch, 448 Kbps, CBR (Russian)
Аудио #2: PCM, 48.0 KHz, CBR (Russian)
Шапокляк

Год выхода: 1974
Жанр: мультфильм, короткометражка, семейный
Режиссер: Роман Качанов
В ролях: Василий Ливанов, Ирина Мазинг, Клара Румянова, Владимир Ферапонтов
Описание:
Третий фильм из серии картин о приключениях Чебурашки, Крокодила Гены и старухи Шапокляк, в котором они выступают как защитники природы.

Видео: AVC, 1424x1072 (4/3), 25.000 fps, 7 000 Kbps (0.183 bit/pixel)
Аудио #1: AC-3, 48.0 KHz, 6 ch, 448 Kbps, CBR (Russian)
Аудио #2: PCM, 48.0 KHz, CBR (Russian)
Чебурашка идет в школу

Год выхода: 1983
Жанр: мультфильм, короткометражка, семейный
Режиссер: Роман Качанов
В ролях: Василий Ливанов, Клара Румянова, Георгий Бурков, Юрий Андреев
Описание:
Крокодил Гена выясняет, что Чебурашка не умеет читать и хочет устроить его в школу. Им неожиданно помогает старуха Шапокляк, которая устраивает срочное завершение ремонта школы к первому сентября. Крокодил Гена становится преподавателем по живой природе.

Видео: AVC, 1424x1072 (4/3), 25.000 fps, 7 000 Kbps (0.183 bit/pixel)
Аудио #1: AC-3, 48.0 KHz, 6 ch, 448 Kbps, CBR (Russian)
Аудио #2: PCM, 48.0 KHz, CBR (Russian)
Варежка

Год выхода: 1967
Жанр: мультфильм, короткометражка
Режиссер: Роман Качанов
Описание:
О девочке, которой мама не позволяла иметь собаку. И тогда красная шерстяная варежка обратилась в умного веселого щенка, с которым девочка дружила и играла.

Видео: AVC, 1424x1072 (4/3), 25.000 fps, 7 000 Kbps (0.183 bit/pixel)
Аудио #1: AC-3, 48.0 KHz, 6 ch, 448 Kbps, CBR (Russian)
Аудио #2: PCM, 48.0 KHz, CBR (Russian)
Общее
Уникальный идентификатор : 173402889423348600679670767315213766963 (0x82742E8518566B5ABD6F073AF37E5133)
Полное имя : E:\NNM-CLUB\Чебурашка и крокодил Гена (1967-1983, 1080p)\01. Крокодил Гена.1969.BluRay.1080p.AC3.x264.mkv
Формат : Matroska
Версия формата : Version 2
Размер файла : 1,12 Гбайт
Продолжительность : 19 м.
Общий поток : 8221 Кбит/сек
Название фильма : Ripped by Koms
Дата кодирования : UTC 2011-11-11 14:24:25
Программа кодирования : mkvmerge v5.0.0 ('Die Wahre Liebe') built on Sep 25 2011 20:33:49
Библиотека кодирования : libebml v1.2.2 + libmatroska v1.3.0

Видео
Идентификатор : 1
Формат : AVC
Формат/Информация : Advanced Video Codec
Профиль формата :
Параметр CABAC формата : Да
Параметр ReFrames формата : 4 кадра
Идентификатор кодека : V_MPEG4/ISO/AVC
Продолжительность : 19 м.
Номинальный битрейт : 7000 Кбит/сек
Ширина : 1424 пикселя
Высота : 1072 пикселя
Соотношение сторон : 4:3
Режим частоты кадров : Постоянный
Частота кадров : 25,000 кадров/сек
Цветовое пространство : YUV
Субдискретизация насыщенности : 4:2:0
Битовая глубина : 8 бит
Тип развёртки : Прогрессивная
Бит/(Пиксели*Кадры) : 0.183
Заголовок : Крокодил Гена.1969.BluRay.1080p.AC3.x264
Библиотека кодирования : x264 core 98 r1649 20cbe10
Настройки программы : cabac=1 / ref=4 / deblock=1:-3:-3 / analyse=0x3:0x133 / me=hex / subme=6 / psy=1 / psy_rd=1.00:0.00 / mixed_ref=1 / me_range=16 / chroma_me=1 / trellis=2 / 8x8dct=1 / cqm=0 / deadzone=21,11 / fast_pskip=0 / chroma_qp_offset=-2 / threads=3 / sliced_threads=0 / nr=0 / decimate=1 / interlaced=0 / constrained_intra=0 / bframes=3 / b_pyramid=2 / b_adapt=2 / b_bias=0 / direct=1 / weightb=1 / weightp=2 / keyint=250 / keyint_min=25 / scenecut=40 / intra_refresh=0 / rc_lookahead=40 / rc=2pass / mbtree=1 / bitrate=7000 / ratetol=1.0 / qcomp=0.60 / qpmin=10 / qpmax=51 / qpstep=4 / cplxblur=20.0 / qblur=0.5 / ip_ratio=1.40 / aq=1:1.00
Язык : Russian
Default : Да
Forced : Нет

Аудио #1
Идентификатор : 2
Формат : AC-3
Формат/Информация : Audio Coding 3
Расширение режима : CM (complete main)
Параметр Endianness формата : Big
Идентификатор кодека : A_AC3
Продолжительность : 19 м.
Вид битрейта : Постоянный
Битрейт : 448 Кбит/сек
Каналы : 6 каналов
Расположение каналов : Front: L C R, Side: L R, LFE
Частота : 48,0 КГц
Битовая глубина : 16 бит
Метод сжатия : С потерями
Размер потока : 62,5 Мбайт (5%)
Заголовок : Русский AC3 5.1 Оригинальный
Язык : Russian
Default : Да
Forced : Нет

Аудио #2
Идентификатор : 3
Формат : PCM
Идентификатор кодека : A_PCM/INT/LIT
Продолжительность : 19 м.
Вид битрейта : Постоянный
Частота : 48,0 КГц
Битовая глубина : 16 бит
Заголовок : Русский LPCM 1.0 Оригинальный
Язык : Russian
Default : Нет
Forced : Нет
Общее
Уникальный идентификатор : 172929439368917558994318223506605559767 (0x8218FFA14760E2D0BB035AF0066F4FD7)
Полное имя : E:\NNM-CLUB\Чебурашка и крокодил Гена (1967-1983, 1080p)\02. Чебурашка.1972.BluRay.1080p.AC3.x264.mkv
Формат : Matroska
Версия формата : Version 2
Размер файла : 1,09 Гбайт
Продолжительность : 19 м.
Общий поток : 8213 Кбит/сек
Название фильма : Ripped by Koms
Дата кодирования : UTC 2011-11-12 02:58:42
Программа кодирования : mkvmerge v5.0.0 ('Die Wahre Liebe') built on Sep 25 2011 20:33:49
Библиотека кодирования : libebml v1.2.2 + libmatroska v1.3.0

Видео
Идентификатор : 1
Формат : AVC
Формат/Информация : Advanced Video Codec
Профиль формата :
Параметр CABAC формата : Да
Параметр ReFrames формата : 4 кадра
Идентификатор кодека : V_MPEG4/ISO/AVC
Продолжительность : 19 м.
Номинальный битрейт : 7000 Кбит/сек
Ширина : 1424 пикселя
Высота : 1072 пикселя
Соотношение сторон : 4:3
Режим частоты кадров : Постоянный
Частота кадров : 25,000 кадров/сек
Цветовое пространство : YUV
Субдискретизация насыщенности : 4:2:0
Битовая глубина : 8 бит
Тип развёртки : Прогрессивная
Бит/(Пиксели*Кадры) : 0.183
Заголовок : Чебурашка.1972.BluRay.1080p.AC3.x264
Библиотека кодирования : x264 core 98 r1649 20cbe10
Настройки программы : cabac=1 / ref=4 / deblock=1:-3:-3 / analyse=0x3:0x133 / me=hex / subme=6 / psy=1 / psy_rd=1.00:0.00 / mixed_ref=1 / me_range=16 / chroma_me=1 / trellis=2 / 8x8dct=1 / cqm=0 / deadzone=21,11 / fast_pskip=0 / chroma_qp_offset=-2 / threads=3 / sliced_threads=0 / nr=0 / decimate=1 / interlaced=0 / constrained_intra=0 / bframes=3 / b_pyramid=2 / b_adapt=2 / b_bias=0 / direct=1 / weightb=1 / weightp=2 / keyint=250 / keyint_min=25 / scenecut=40 / intra_refresh=0 / rc_lookahead=40 / rc=2pass / mbtree=1 / bitrate=7000 / ratetol=1.0 / qcomp=0.60 / qpmin=10 / qpmax=51 / qpstep=4 / cplxblur=20.0 / qblur=0.5 / ip_ratio=1.40 / aq=1:1.00
Язык : Russian
Default : Да
Forced : Нет

Аудио #1
Идентификатор : 2
Формат : AC-3
Формат/Информация : Audio Coding 3
Расширение режима : CM (complete main)
Параметр Endianness формата : Big
Идентификатор кодека : A_AC3
Продолжительность : 19 м.
Вид битрейта : Постоянный
Битрейт : 448 Кбит/сек
Каналы : 6 каналов
Расположение каналов : Front: L C R, Side: L R, LFE
Частота : 48,0 КГц
Битовая глубина : 16 бит
Метод сжатия : С потерями
Размер потока : 60,9 Мбайт (5%)
Заголовок : Русский AC3 5.1 Оригинальный
Язык : Russian
Default : Да
Forced : Нет

Аудио #2
Идентификатор : 3
Формат : PCM
Идентификатор кодека : A_PCM/INT/LIT
Продолжительность : 19 м.
Вид битрейта : Постоянный
Частота : 48,0 КГц
Битовая глубина : 16 бит
Заголовок : Русский LPCM 1.0 Оригинальный
Язык : Russian
Default : Нет
Forced : Нет
Общее
Уникальный идентификатор : 246140950183625596320559561171789655147 (0xB92D05CC618BB0C5867268F8BD1FAC6B)
Полное имя : E:\NNM-CLUB\Чебурашка и крокодил Гена (1967-1983, 1080p)\03. Шапокляк.1974.BluRay.1080p.AC3.x264.mkv
Формат : Matroska
Версия формата : Version 2
Размер файла : 1,08 Гбайт
Продолжительность : 18 м.
Общий поток : 8223 Кбит/сек
Название фильма : Ripped by Koms
Дата кодирования : UTC 2011-11-12 03:10:14
Программа кодирования : mkvmerge v5.0.0 ('Die Wahre Liebe') built on Sep 25 2011 20:33:49
Библиотека кодирования : libebml v1.2.2 + libmatroska v1.3.0

Видео
Идентификатор : 1
Формат : AVC
Формат/Информация : Advanced Video Codec
Профиль формата :
Параметр CABAC формата : Да
Параметр ReFrames формата : 4 кадра
Идентификатор кодека : V_MPEG4/ISO/AVC
Продолжительность : 18 м.
Номинальный битрейт : 7000 Кбит/сек
Ширина : 1424 пикселя
Высота : 1072 пикселя
Соотношение сторон : 4:3
Режим частоты кадров : Постоянный
Частота кадров : 25,000 кадров/сек
Цветовое пространство : YUV
Субдискретизация насыщенности : 4:2:0
Битовая глубина : 8 бит
Тип развёртки : Прогрессивная
Бит/(Пиксели*Кадры) : 0.183
Заголовок : Шапокляк.1974.BluRay.1080p.AC3.x264
Библиотека кодирования : x264 core 98 r1649 20cbe10
Настройки программы : cabac=1 / ref=4 / deblock=1:-3:-3 / analyse=0x3:0x133 / me=hex / subme=6 / psy=1 / psy_rd=1.00:0.00 / mixed_ref=1 / me_range=16 / chroma_me=1 / trellis=2 / 8x8dct=1 / cqm=0 / deadzone=21,11 / fast_pskip=0 / chroma_qp_offset=-2 / threads=3 / sliced_threads=0 / nr=0 / decimate=1 / interlaced=0 / constrained_intra=0 / bframes=3 / b_pyramid=2 / b_adapt=2 / b_bias=0 / direct=1 / weightb=1 / weightp=2 / keyint=250 / keyint_min=25 / scenecut=40 / intra_refresh=0 / rc_lookahead=40 / rc=2pass / mbtree=1 / bitrate=7000 / ratetol=1.0 / qcomp=0.60 / qpmin=10 / qpmax=51 / qpstep=4 / cplxblur=20.0 / qblur=0.5 / ip_ratio=1.40 / aq=1:1.00
Язык : Russian
Default : Да
Forced : Нет

Аудио #1
Идентификатор : 2
Формат : AC-3
Формат/Информация : Audio Coding 3
Расширение режима : CM (complete main)
Параметр Endianness формата : Big
Идентификатор кодека : A_AC3
Продолжительность : 18 м.
Вид битрейта : Постоянный
Битрейт : 448 Кбит/сек
Каналы : 6 каналов
Расположение каналов : Front: L C R, Side: L R, LFE
Частота : 48,0 КГц
Битовая глубина : 16 бит
Метод сжатия : С потерями
Размер потока : 60,4 Мбайт (5%)
Заголовок : Русский AC3 5.1 Оригинальный
Язык : Russian
Default : Да
Forced : Нет

Аудио #2
Идентификатор : 3
Формат : PCM
Идентификатор кодека : A_PCM/INT/LIT
Продолжительность : 18 м.
Вид битрейта : Постоянный
Частота : 48,0 КГц
Битовая глубина : 16 бит
Заголовок : Русский LPCM 1.0 Оригинальный
Язык : Russian
Default : Нет
Forced : Нет
Общее
Уникальный идентификатор : 222418323145522964884094184377223714480 (0xA75435FBBFC2F072BE512175F59F96B0)
Полное имя : E:\NNM-CLUB\Чебурашка и крокодил Гена (1967-1983, 1080p)\04. Чебурашка идёт в школу.1983.BluRay.1080p.AC3.x264.mkv
Формат : Matroska
Версия формата : Version 2
Размер файла : 550 Мбайт
Продолжительность : 9 м. 21 с.
Общий поток : 8205 Кбит/сек
Название фильма : Ripped by Koms
Дата кодирования : UTC 2011-11-12 03:15:25
Программа кодирования : mkvmerge v5.0.0 ('Die Wahre Liebe') built on Sep 25 2011 20:33:49
Библиотека кодирования : libebml v1.2.2 + libmatroska v1.3.0

Видео
Идентификатор : 1
Формат : AVC
Формат/Информация : Advanced Video Codec
Профиль формата :
Параметр CABAC формата : Да
Параметр ReFrames формата : 4 кадра
Идентификатор кодека : V_MPEG4/ISO/AVC
Продолжительность : 9 м. 21 с.
Номинальный битрейт : 7000 Кбит/сек
Ширина : 1424 пикселя
Высота : 1072 пикселя
Соотношение сторон : 4:3
Режим частоты кадров : Постоянный
Частота кадров : 25,000 кадров/сек
Цветовое пространство : YUV
Субдискретизация насыщенности : 4:2:0
Битовая глубина : 8 бит
Тип развёртки : Прогрессивная
Бит/(Пиксели*Кадры) : 0.183
Заголовок : Чебурашка идёт в школу.1983.BluRay.1080p.AC3.x264
Библиотека кодирования : x264 core 98 r1649 20cbe10
Настройки программы : cabac=1 / ref=4 / deblock=1:-3:-3 / analyse=0x3:0x133 / me=hex / subme=6 / psy=1 / psy_rd=1.00:0.00 / mixed_ref=1 / me_range=16 / chroma_me=1 / trellis=2 / 8x8dct=1 / cqm=0 / deadzone=21,11 / fast_pskip=0 / chroma_qp_offset=-2 / threads=3 / sliced_threads=0 / nr=0 / decimate=1 / interlaced=0 / constrained_intra=0 / bframes=3 / b_pyramid=2 / b_adapt=2 / b_bias=0 / direct=1 / weightb=1 / weightp=2 / keyint=250 / keyint_min=25 / scenecut=40 / intra_refresh=0 / rc_lookahead=40 / rc=2pass / mbtree=1 / bitrate=7000 / ratetol=1.0 / qcomp=0.60 / qpmin=10 / qpmax=51 / qpstep=4 / cplxblur=20.0 / qblur=0.5 / ip_ratio=1.40 / aq=1:1.00
Язык : Russian
Default : Да
Forced : Нет

Аудио #1
Идентификатор : 2
Формат : AC-3
Формат/Информация : Audio Coding 3
Расширение режима : CM (complete main)
Параметр Endianness формата : Big
Идентификатор кодека : A_AC3
Продолжительность : 9 м. 21 с.
Вид битрейта : Постоянный
Битрейт : 448 Кбит/сек
Каналы : 6 каналов
Расположение каналов : Front: L C R, Side: L R, LFE
Частота : 48,0 КГц
Битовая глубина : 16 бит
Метод сжатия : С потерями
Размер потока : 30,0 Мбайт (5%)
Заголовок : Русский AC3 5.1 Оригинальный
Язык : Russian
Default : Да
Forced : Нет

Аудио #2
Идентификатор : 3
Формат : PCM
Идентификатор кодека : A_PCM/INT/LIT
Продолжительность : 9 м. 21 с.
Вид битрейта : Постоянный
Частота : 48,0 КГц
Битовая глубина : 16 бит
Заголовок : Русский LPCM 1.0 Оригинальный
Язык : Russian
Default : Нет
Forced : Нет
Общее
Уникальный идентификатор : 185011703026624179453614419247982302279 (0x8B2FF5386AC1D53FB37D63FA98F9D447)
Полное имя : E:\NNM-CLUB\Чебурашка и крокодил Гена (1967-1983, 1080p)\05. Варежка.1967.BluRay.1080p.AC3.x264.mkv
Формат : Matroska
Версия формата : Version 2
Размер файла : 581 Мбайт
Продолжительность : 9 м. 53 с.
Общий поток : 8216 Кбит/сек
Название фильма : Ripped by Koms
Дата кодирования : UTC 2011-11-12 03:17:47
Программа кодирования : mkvmerge v5.0.0 ('Die Wahre Liebe') built on Sep 25 2011 20:33:49
Библиотека кодирования : libebml v1.2.2 + libmatroska v1.3.0

Видео
Идентификатор : 1
Формат : AVC
Формат/Информация : Advanced Video Codec
Профиль формата :
Параметр CABAC формата : Да
Параметр ReFrames формата : 4 кадра
Идентификатор кодека : V_MPEG4/ISO/AVC
Продолжительность : 9 м. 53 с.
Номинальный битрейт : 7000 Кбит/сек
Ширина : 1424 пикселя
Высота : 1072 пикселя
Соотношение сторон : 4:3
Режим частоты кадров : Постоянный
Частота кадров : 25,000 кадров/сек
Цветовое пространство : YUV
Субдискретизация насыщенности : 4:2:0
Битовая глубина : 8 бит
Тип развёртки : Прогрессивная
Бит/(Пиксели*Кадры) : 0.183
Заголовок : Варежка.1967.BluRay.1080p.AC3.x264
Библиотека кодирования : x264 core 98 r1649 20cbe10
Настройки программы : cabac=1 / ref=4 / deblock=1:-3:-3 / analyse=0x3:0x133 / me=hex / subme=6 / psy=1 / psy_rd=1.00:0.00 / mixed_ref=1 / me_range=16 / chroma_me=1 / trellis=2 / 8x8dct=1 / cqm=0 / deadzone=21,11 / fast_pskip=0 / chroma_qp_offset=-2 / threads=3 / sliced_threads=0 / nr=0 / decimate=1 / interlaced=0 / constrained_intra=0 / bframes=3 / b_pyramid=2 / b_adapt=2 / b_bias=0 / direct=1 / weightb=1 / weightp=2 / keyint=250 / keyint_min=25 / scenecut=40 / intra_refresh=0 / rc_lookahead=40 / rc=2pass / mbtree=1 / bitrate=7000 / ratetol=1.0 / qcomp=0.60 / qpmin=10 / qpmax=51 / qpstep=4 / cplxblur=20.0 / qblur=0.5 / ip_ratio=1.40 / aq=1:1.00
Язык : Russian
Default : Да
Forced : Нет

Аудио #1
Идентификатор : 2
Формат : AC-3
Формат/Информация : Audio Coding 3
Расширение режима : CM (complete main)
Параметр Endianness формата : Big
Идентификатор кодека : A_AC3
Продолжительность : 9 м. 53 с.
Вид битрейта : Постоянный
Битрейт : 448 Кбит/сек
Каналы : 6 каналов
Расположение каналов : Front: L C R, Side: L R, LFE
Частота : 48,0 КГц
Битовая глубина : 16 бит
Метод сжатия : С потерями
Размер потока : 31,7 Мбайт (5%)
Заголовок : Русский AC3 5.1 Оригинальный
Язык : Russian
Default : Да
Forced : Нет

Аудио #2
Идентификатор : 3
Формат : PCM
Идентификатор кодека : A_PCM/INT/LIT
Продолжительность : 9 м. 53 с.
Вид битрейта : Постоянный
Частота : 48,0 КГц
Битовая глубина : 16 бит
Заголовок : Русский LPCM 1.0 Оригинальный
Язык : Russian
Default : Нет
Forced : Нет
Скриншоты:

загрузка...
Правила, инструкции, FAQ!!!
Торрент  Добавлен [29 дек 2014, 23:40] Скачать торрент Магнет ссылка
Скачать торрент
[ Размер 23.23 КБ / Просмотров 21 ]

Статус
Проверен 
 
Размер  4.4 ГБ
Приватный: Нет (DHT включён)
.torrent скачан  3
Как залить торрент? | Как скачать Torrent? | Как смотреть и слушать онлайн?  


     Отправить личное сообщение
   
Страница 1 из 1
Показать сообщения за:  Поле сортировки  
Начать новую тему Ответить на тему

   Похожие торренты   Автор   Ответы   Просмотры   Последнее сообщение 
В этой теме нет новых непрочитанных сообщений. Скачать торрент Проверен Котенок по имени Гав. Сборник мультфильмов (1953-1988) [1080p] BDRip

в форуме Отечественные мультфильмы (HD Video), Размер: 6.56 ГБ, Здоровье: 100%

Гость

0
21|3

317
49

29 дек 2014, 23:51

Гость Перейти к последнему сообщению

В этой теме нет новых непрочитанных сообщений. Скачать торрент Проверен С Новым годом! Сборник мультфильмов (1950-1969) DVDRip

в форуме Отечественные мультфильмы, Размер: 1.36 ГБ, Здоровье: 100%

Anonymous

0
2|0

291
2

26 дек 2014, 16:53

Anonymous Перейти к последнему сообщению

В этой теме нет новых непрочитанных сообщений. Скачать торрент Проверен Сборник мультфильмов Федора Хитрука - Полная коллекция (1962-1983) DVDRip

в форуме Отечественные мультфильмы, Размер: 2.48 ГБ, Здоровье: 100%

Гость

0
211|102

346
567

27 июн 2016, 00:14

Гость Перейти к последнему сообщению

В этой теме нет новых непрочитанных сообщений. Скачать торрент Проверен Сборник мультфильмов студии «Таджикфильм» - Коллекция (1969-1997) DVDRip, WEBRip

в форуме Отечественные мультфильмы, Размер: 1.35 ГБ, Здоровье: 100%

Anonymous

0
15|8

64
25

06 июн 2017, 19:51

Anonymous Перейти к последнему сообщению

В этой теме нет новых непрочитанных сообщений. Скачать торрент Проверен Сборник мультфильмов Валентина Караваева - Полная коллекция (1969-1995) DVDRip

в форуме Отечественные мультфильмы, Размер: 2.8 ГБ, Здоровье: 100%

Гость

0
126|74

268
336

02 июл 2016, 00:21

Гость Перейти к последнему сообщению



Сейчас этот форум просматривают: нет зарегистрированных пользователей и гости: 1


Вы не можете начинать темы
Вы не можете отвечать на сообщения
Вы не можете редактировать свои сообщения
Вы не можете удалять свои сообщения
Вы не можете добавлять вложения


!ВНИМАНИЕ!
 Ресурс не предоставляет электронные версии произведений, а занимается лишь коллекционированием и каталогизацией ссылок, присылаемых и публикуемых на форуме нашими читателями. Если вы являетесь правообладателем какого-либо представленного материала и не желаете чтобы ссылка на него находилась в нашем каталоге, свяжитесь с нами и мы незамедлительно удалим её. Файлы для обмена на трекере предоставлены пользователями сайта, и администрация не несёт ответственности за их содержание. Просьба не заливать файлы, защищенные авторскими правами, а также файлы нелегального содержания!