На всех торрентах на трекере установлена скидка на скачивание в размере 100 процентов(а).
 Возможность скачивания торрента НЕ зависит от ограничений при низком ратио, низком аплоаде, требуемом ратио или требуемом аплоаде.


Начать новую тему Ответить на тему
Статистика раздачи
Размер: 2.19 ГБ | Добавлен: 25 апр 2014, 08:51 | Скачали: 0
Сидеров: 14  [0 байт/сек]    Личеров: 4  [0 байт/сек]
Пред. тема | След. тема 

Автор
Сообщение

СообщениеДобавлено: 25 апр 2014, 08:51 

Царство небесное / Kingdom of Heaven

Страна: США, Испания
Жанр: боевик, приключения, военный, история
Год выпуска: 2005
Продолжительность: 03:09:33

Перевод: Авторский (одноголосый закадровый) А. Гаврилов
Cубтитры: нет
Оригинальная аудиодорожка: английский

Режиссер: Ридли Скотт / Ridley Scott

В ролях: Орландо Блум, Ева Грин, Мартон Чокаш, Дэвид Тьюлис, Гасан Масуд, Лиам Нисон, Джереми Айронс, Эдвард Нортон, Брендан Глисон, Майкл Шин..

Описание: Юный оружейник Бэлиан вынужден бежать со своей родины. Он присоединяется к отряду крестоносцев, которым руководит его отец. Но, в одной из битв, отец получает тяжелую рану и перед смертью присваивает своему сыну сан рыцаря, и тот клянется в верности королю Иерусалима.


Рип сделан с BDRip 720p Winchester, за который ему спасибо. Гаврилов с голоса.

Сэмпл: http://multi-up.com/689759

Качество видео: HDRip
Формат видео: AVI

Видео: 720x304 (2.37:1), 23.976 fps, XviD build 64 ~1261 kbps avg, 0.24 bit/pixel
Аудио: 48 kHz, AC3 Dolby Digital, 2/0 (L,R) ch, ~192 kbps (Гаврилов)
Аудио 2: 48 kHz, AC3 Dolby Digital, 2/0 (L,R) ch, ~192 kbps (английский)
MediaInfo
General
Complete name : D:\Torrent\Kingdom of Heaven.HDRip.AVO(Gavrilov)+Eng.by_feld.avi
Format : AVI
Format/Info : Audio Video Interleave
Format profile : OpenDML
File size : 2.19 GiB
Duration : 3h 9mn
Overall bit rate : 1 652 Kbps
Writing application : VirtualDubModRus 1.5.10.2 (build 2542/release)
Writing library : VirtualDubMod build 2542/release

Video
ID : 0
Format : MPEG-4 Visual
Format profile : Advanced Simple@L5
Format settings, BVOP : Yes
Format settings, QPel : No
Format settings, GMC : No warppoints
Format settings, Matrix : Default (MPEG)
Codec ID : XVID
Codec ID/Hint : XviD
Duration : 3h 9mn
Bit rate : 1 250 Kbps
Width : 720 pixels
Height : 304 pixels
Display aspect ratio : 2.35:1
Frame rate : 23.976 fps
Color space : YUV
Chroma subsampling : 4:2:0
Bit depth : 8 bits
Scan type : Progressive
Bits/(Pixel*Frame) : 0.238
Stream size : 1.66 GiB (76%)
Writing library : XviD 64

Audio #1
ID : 1
Format : AC-3
Format/Info : Audio Coding 3
Mode extension : CM (complete main)
Codec ID : 2000
Duration : 3h 9mn
Bit rate mode : Constant
Bit rate : 192 Kbps
Channel(s) : 2 channels
Channel positions : Front: L R
Sampling rate : 48.0 KHz
Bit depth : 16 bits
Stream size : 260 MiB (12%)
Alignment : Split accross interleaves
Interleave, duration : 42 ms (1.00 video frame)
Interleave, preload duration : 500 ms

Audio #2
ID : 2
Format : AC-3
Format/Info : Audio Coding 3
Mode extension : CM (complete main)
Codec ID : 2000
Duration : 3h 9mn
Bit rate mode : Constant
Bit rate : 192 Kbps
Channel(s) : 2 channels
Channel positions : Front: L R
Sampling rate : 48.0 KHz
Bit depth : 16 bits
Stream size : 260 MiB (12%)
Alignment : Split accross interleaves
Interleave, duration : 42 ms (1.00 video frame)
Interleave, preload duration : 500 ms
Скриншот c названием фильма
Скриншоты
загрузка...
Правила, инструкции, FAQ!!!
Торрент  Добавлен [25 апр 2014, 08:51] Скачать торрент
Скачать торрент
[ Размер 11.61 КБ / Просмотров 11 ]

Статус  
 
Размер  2.19 ГБ
Приватный: Нет (DHT включён)
.torrent скачан  0
Как залить торрент? | Как скачать Torrent? | Как смотреть и слушать онлайн?  


     Отправить личное сообщение
   
Страница 1 из 1
Показать сообщения за:  Поле сортировки  
Начать новую тему Ответить на тему

   Похожие торренты   Автор   Ответы   Просмотры   Последнее сообщение 
В этой теме нет новых непрочитанных сообщений. Скачать торрент Проверен [iPad] Гладиатор / Gladiator (Ридли Скотт / Ridley Scott) [2000 г., драма, военный, исторический, BDRip 720p]

в форуме Фильмы для iPod, iPhone, iPad, Размер: 4.32 ГБ, Здоровье: 100%

Гость

0
9|3

76
3

14 май 2015, 00:22

Гость Перейти к последнему сообщению

В этой теме нет новых непрочитанных сообщений. Скачать торрент Проверен [iPhone] Мы из будущего (Режиссерская версия) (Андрей Малюков) [2008 г., фантастика, боевик, приключения, военный, история, SATRip]

в форуме Фильмы для iPod, iPhone, iPad, Размер: 1.01 ГБ, Здоровье: 100%

Anonymous

0
23|7

44
0

14 май 2015, 00:19

Anonymous Перейти к последнему сообщению

В этой теме нет новых непрочитанных сообщений. Скачать торрент Проверен [iPad] Гангстер / American Gangster (Ридли Скотт / Ridley Scott) [2007 г., драма, криминал, BDRip 720p] [Расширенная версия / Unrated Edition]

в форуме Фильмы для iPod, iPhone, iPad, Размер: 4.24 ГБ, Здоровье: 100%

Гость

0
17|5

83
1

14 май 2015, 00:02

Гость Перейти к последнему сообщению

В этой теме нет новых непрочитанных сообщений. Скачать торрент Проверен [iPad] Советник / The Counselor (Ридли Скотт / Ridley Scott ) [2013, США, Великобритания, триллер, драма, криминал, HDRip, SD (576p)] DUB + Original + sub (rus, eng)

в форуме Фильмы для iPod, iPhone, iPad, Размер: 2.02 ГБ, Здоровье: 100%

Гость

0
46|15

90
1

18 май 2015, 10:31

Гость Перейти к последнему сообщению

В этой теме нет новых непрочитанных сообщений. Скачать торрент Проверен [iPod] Хороший год / A Good Year (Ридли Скотт / Ridley Scott) [2006 г., Комедия, мелодрама, драма, DVDRip]

в форуме Фильмы для iPod, iPhone, iPad, Размер: 332.72 МБ, Здоровье: 100%

Anonymous

0
1|0

53
0

14 май 2015, 00:25

Anonymous Перейти к последнему сообщению



Сейчас этот форум просматривают: нет зарегистрированных пользователей и гости: 1


Вы не можете начинать темы
Вы не можете отвечать на сообщения
Вы не можете редактировать свои сообщения
Вы не можете удалять свои сообщения
Вы не можете добавлять вложения

Перейти:  

!ВНИМАНИЕ!
 Ресурс не предоставляет электронные версии произведений, а занимается лишь коллекционированием и каталогизацией ссылок, присылаемых и публикуемых на форуме нашими читателями. Если вы являетесь правообладателем какого-либо представленного материала и не желаете чтобы ссылка на него находилась в нашем каталоге, свяжитесь с нами и мы незамедлительно удалим её. Файлы для обмена на трекере предоставлены пользователями сайта, и администрация не несёт ответственности за их содержание. Просьба не заливать файлы, защищенные авторскими правами, а также файлы нелегального содержания!