На всех торрентах на трекере установлена скидка на скачивание в размере 100 процентов(а).
 Возможность скачивания торрента НЕ зависит от ограничений при низком ратио, низком аплоаде, требуемом ратио или требуемом аплоаде.


Начать новую тему Ответить на тему
Статистика раздачи
Размер: 6.83 ГБ | Добавлен: 06 янв 2017, 01:29 | Скачали: 84
Сидеров: 15  [0 байт/сек]    Личеров: 8  [0 байт/сек]
Пред. тема | След. тема 

Автор
Сообщение

СообщениеДобавлено: 06 янв 2017, 01:29 

Ответить с цитатой 

Название: Большая маленькая Я
Оригинальное название: L'age de raison
Год выхода: 2010
Жанр: мелодрама, комедия
Режиссер: Ян Самюэль / Jan Samuel
В ролях: Софи Марсо, Мартон Чокаш, Мишель Дюшоссуа, Джонатан Цассаи, Эммануэль Грёнвольд, Джульетт Чаппи, Тьерри Ханчиссе

О фильме: Маргарет - типичная карьеристка, бизнес-леди, не замужем, детей нет, жизнь расписана по минутам делового расписания. Неожиданно она начинает получать одно за другим письма из детства, которые когда-то давно отправила себе самой, взрослой. Милые, наивные детские письма заставляют ее вспомнить детство, его светлые и темные стороны, свои мечты, своих близких. Одно за другим, письма меняют ее жизнь, ее взгляды и в итоге - меняют и образ жизни.



Страна: Франция, Бельгия
Студия: Nord-Ouest Productions, France 2 Cinéma

Продолжительность: 01:29:31
Перевод : Профессиональный (многоголосый, закадровый)
Cубтитры : Русский, Английский

Контейнер: MKV
Качество: BDRip 1080p
Видео: MPEG-4 AVC, High@L4.1, 9 836 kb/s, 1 920 x 824, 23.976 fps
Аудио 1 : Русский (AC3, 6ch, 448 kb/s, 48.0 KHz) MVO
Аудио 2 : Французский (AC3, 6ch, 640 kb/s, 48.0 KHz)
Субтитры : Russian SRT, English SRT

Навигация по главам: есть
Глобальные тэги: есть

Общее
Уникальный идентификатор : 234213550028563766838627334817266901229 (0xB033E39172EE91B28592C2515185A0ED)
Полное имя : E:Большая маленькая Я L'âge de raison (2010).mkv
Формат : Matroska
Версия формата : Version 4 / Version 2
Размер файла : 6,83 Гбайт
Продолжительность : 1 ч. 29 м.
Общий поток : 10,9 Мбит/сек
Название фильма : Большая ма
Тип содержимого : Movie
Описание : "Dear Me. Today I am seven years old and I'm writing you this letter to help you remember the
Дата выпуска : 2010-07-28
Дата кодирования : UTC 2017-01-04 21:01:56
Программа кодирования : mkvmerge v9.7.1 ('Pandemonium') 64bit
Библиотека кодирования : libebml v1.3.4 + libmatroska v1.4.5
Обложка : Yes
Attachments : cover.jpg
ACTOR : Софи Марсо, Мартон Чокаш, Мишель Дюшоссуа, Джонатан Цассаи, Эммануэль Грёнвольд, Джульетт Чаппи, Тьерри Ханчиссе
ARTIST : Софи Марсо, Мартон Чокаш, Мишель Дюшоссуа, Джонатан Цассаи, Эммануэль Грёнвольд, Джульетт Чаппи, Тьерри Ханчиссе
DIRECTOR : Ян Самюэль
GENRE : комедия
LAW_RATING : NR
PRODUCER : Бенедикт Беллок, Христоф Россигнон, Филипп Боэффард
PRODUCTION_STUDIO : Cinémage 4
SCREENPLAY_BY : Ян Самюэль
SUMMARY : "Dear Me. Today I am seven years old and I'm writing you this letter to help you remember the
SYNOPSIS : Когда-то успешная бизнес-леди Марго Флор была маленькой девочкой. Кем только ей не хотелось стать в будущем: от исследователя морских глубин до покорителя иных планет. Но судьба распорядилась иначе: теперь Марго заключает сделки на миллионы евро, ее жизнь расписана по минутам на ближайшие полгода и даже со своим любимым, англичанином Малькольмом, она встречается в спокойной обстановке не чаще раза в месяц. И вот однажды пожилой нотариус Фернан Мериньяк приносит ей письмо, начинающееся словами: «Дорогая Я, мне сейчас семь лет и я пишу это письмо, чтобы ты не забыла обещания, которые дала себе, и помнила, кем хочешь быть…»

Видео
Идентификатор : 1
Формат : AVC
Формат/Информация : Advanced Video Codec
Профиль формата : High@L4.1
Параметр CABAC формата : Да
Параметр ReFrames формата : 5 кадров
Идентификатор кодека : V_MPEG4/ISO/AVC
Продолжительность : 1 ч. 29 м.
Битрейт : 9836 Кбит/сек
Ширина : 1920 пикселей
Высота : 824 пикселя
Соотношение сторон : 2,35:1
Режим частоты кадров : Постоянный
Частота кадров : 23,976 (24000/1001) кадра/сек
Цветовое пространство : YUV
Субдискретизация насыщенности : 4:2:0
Битовая глубина : 8 бит
Тип развёртки : Прогрессивная
Бит/(Пиксели*Кадры) : 0.259
Размер потока : 6,15 Гбайт (90%)
Библиотека кодирования : x264 core 114 r1924 08d04a4
Настройки программы : cabac=1 / ref=5 / deblock=1:-1:-1 / analyse=0x3:0x113 / me=umh / subme=7 / psy=1 / psy_rd=1.00:0.00 / mixed_ref=1 / me_range=16 / chroma_me=1 / trellis=1 / 8x8dct=1 / cqm=0 / deadzone=21,11 / fast_pskip=0 / chroma_qp_offset=-2 / threads=12 / sliced_threads=0 / nr=0 / decimate=1 / interlaced=0 / constrained_intra=0 / bframes=3 / b_pyramid=2 / b_adapt=2 / b_bias=0 / direct=3 / weightb=1 / open_gop=0 / weightp=2 / keyint=250 / keyint_min=23 / scenecut=40 / intra_refresh=0 / rc_lookahead=40 / rc=2pass / mbtree=1 / bitrate=9836 / ratetol=1.0 / qcomp=0.60 / qpmin=0 / qpmax=69 / qpstep=4 / cplxblur=20.0 / qblur=0.5 / vbv_maxrate=50000 / vbv_bufsize=50000 / nal_hrd=none / ip_ratio=1.40 / aq=1:1.00
Язык : French
Default : Да
Forced : Да

Аудио #1
Идентификатор : 2
Формат : AC-3
Формат/Информация : Audio Coding 3
Расширение режима : CM (complete main)
Параметр Endianness формата : Big
Идентификатор кодека : A_AC3
Продолжительность : 1 ч. 29 м.
Вид битрейта : Постоянный
Битрейт : 448 Кбит/сек
Каналы : 6 каналов
Расположение каналов : Front: L C R, Side: L R, LFE
Частота : 48,0 КГц
Частота кадров : 31,250 кадров/сек (1536 spf)
Битовая глубина : 16 бит
Метод сжатия : С потерями
Размер потока : 287 Мбайт (4%)
Заголовок : MVO
Язык : Russian
Default : Да
Forced : Нет

Аудио #2
Идентификатор : 3
Формат : AC-3
Формат/Информация : Audio Coding 3
Расширение режима : CM (complete main)
Параметр Endianness формата : Big
Идентификатор кодека : A_AC3
Продолжительность : 1 ч. 29 м.
Вид битрейта : Постоянный
Битрейт : 640 Кбит/сек
Каналы : 6 каналов
Расположение каналов : Front: L C R, Side: L R, LFE
Частота : 48,0 КГц
Частота кадров : 31,250 кадров/сек (1536 spf)
Битовая глубина : 16 бит
Метод сжатия : С потерями
Размер потока : 410 Мбайт (6%)
Язык : French
Default : Нет
Forced : Нет

Текст #1
Идентификатор : 4
Формат : UTF-8
Идентификатор кодека : S_TEXT/UTF8
Идентификатор кодека/Информация : UTF-8 Plain Text
Продолжительность : 1 ч. 24 м.
Битрейт : 118 бит/сек
Count of elements : 1174
Размер потока : 73,9 Кбайт (0%)
Заголовок : SRT
Язык : Russian
Default : Нет
Forced : Нет

Текст #2
Идентификатор : 5
Формат : UTF-8
Идентификатор кодека : S_TEXT/UTF8
Идентификатор кодека/Информация : UTF-8 Plain Text
Продолжительность : 1 ч. 23 м.
Битрейт : 46 бит/сек
Count of elements : 1133
Размер потока : 28,5 Кбайт (0%)
Заголовок : SRT
Язык : English
Default : Нет
Forced : Нет

Меню
00:00:00.000 : fr:Chapter 01
00:05:30.872 : fr:Chapter 02
00:18:02.415 : fr:Chapter 03
00:22:53.289 : fr:Chapter 04
00:30:40.672 : fr:Chapter 05
00:37:30.957 : fr:Chapter 06
00:45:20.343 : fr:Chapter 07
00:56:06.071 : fr:Chapter 08
01:00:20.951 : fr:Chapter 09
01:06:00.081 : fr:Chapter 10
01:15:45.917 : fr:Chapter 11
01:21:35.808 : fr:Chapter 12
01:24:56.633 : fr:chapter 13
загрузка...
Правила, инструкции, FAQ!!!
Торрент  Добавлен [06 янв 2017, 01:29] Скачать торрент
Скачать торрент
[ Размер 34.83 КБ / Просмотров 6 ]

Статус
Проверен 
 
Размер  6.83 ГБ
Приватный: Нет (DHT включён)
.torrent скачан  84
Как залить торрент? | Как скачать Torrent? | Как смотреть и слушать онлайн?  


     Отправить личное сообщение
   
Страница 1 из 1
Показать сообщения за:  Поле сортировки  
Начать новую тему Ответить на тему

   Похожие торренты   Автор   Ответы   Просмотры   Последнее сообщение 
В этой теме нет новых непрочитанных сообщений. Скачать торрент Проверен Большая маленькая Я / L'age de raison (2010) BDRip

в форуме Драмы, Мелодрамы, Размер: 1.45 ГБ, Здоровье: 100%

Гость

0
5|2

110
50

06 янв 2017, 01:34

Гость Перейти к последнему сообщению

В этой теме нет новых непрочитанных сообщений. Скачать торрент Проверен (Dark Ambient) [7"] [24/96] Raison d'Etre (raison d'être) - In Sadness, Silence and Solitude (expanded edition) [bonus disc] - 2014, FLAC (tracks), lossless

в форуме Электронная музыка (оцифровки), Размер: 184.89 МБ, Здоровье: 100%

Anonymous

0
2|1

20
0

15 сен 2016, 18:15

Anonymous Перейти к последнему сообщению

В этой теме нет новых непрочитанных сообщений. Скачать торрент Проверен Центурион / Centurion (2010) BDRip 1080p | D, P, A

в форуме 720p | 1080p, Размер: 15.73 ГБ, Здоровье: 100%

Anonymous

0
22|18

56
74

04 май 2015, 20:17

Anonymous Перейти к последнему сообщению

В этой теме нет новых непрочитанных сообщений. Скачать торрент Проверен 14 клинков / Gam yee wai / 14 Blades (2010) BDRip 1080p | P1

в форуме 720p | 1080p, Размер: 11.82 ГБ, Здоровье: 100%

Гость

0
18|5

144
7

08 апр 2016, 19:29

Гость Перейти к последнему сообщению

В этой теме нет новых непрочитанных сообщений. Скачать торрент Проверен U2: 360 at the Rose Bowl [2010, Rock, BDRip 1080p]

в форуме Концерты (HD-Video), Размер: 10.41 ГБ, Здоровье: 100%

Anonymous

0
5|2

19
0

23 окт 2016, 16:29

Anonymous Перейти к последнему сообщению



Сейчас этот форум просматривают: нет зарегистрированных пользователей и гости: 0


Вы не можете начинать темы
Вы не можете отвечать на сообщения
Вы не можете редактировать свои сообщения
Вы не можете удалять свои сообщения
Вы не можете добавлять вложения

Перейти:  

!ВНИМАНИЕ!
 Ресурс не предоставляет электронные версии произведений, а занимается лишь коллекционированием и каталогизацией ссылок, присылаемых и публикуемых на форуме нашими читателями. Если вы являетесь правообладателем какого-либо представленного материала и не желаете чтобы ссылка на него находилась в нашем каталоге, свяжитесь с нами и мы незамедлительно удалим её. Файлы для обмена на трекере предоставлены пользователями сайта, и администрация не несёт ответственности за их содержание. Просьба не заливать файлы, защищенные авторскими правами, а также файлы нелегального содержания!