На всех торрентах на трекере установлена скидка на скачивание в размере 100 процентов(а).
 Возможность скачивания торрента НЕ зависит от ограничений при низком ратио, низком аплоаде, требуемом ратио или требуемом аплоаде.


Начать новую тему Ответить на тему
Статистика раздачи
Размер: 1.36 ГБ | Добавлен: 16 фев 2014, 13:08 | Скачали: 0
Сидеров: 2  [0 байт/сек]    Личеров: 1  [0 байт/сек]
Пред. тема | След. тема 

Автор
Сообщение

СообщениеДобавлено: 16 фев 2014, 13:08 

Ответить с цитатой 

Благодетель / O Bem Amado

Страна: Бразилия
Жанр: комедия
Год выпуска: 2010
Продолжительность: 1:43:42.

Перевод: Профессиональный (многоголосый закадровый)
Cубтитры: нет
Режиссер: Гаел Арраес / Guel Arraes

В ролях: Кайу Блат, Мария Флор, Бруно Гарсиа, Дрика Мораэс

Описание: Киноверсия популярного телесериала. В 1961 году в Бразилии готовится переворот, а действующий президент Жаниу Куадрус внезапно объявляет об отставке. В маленьком городке Сукупира тоже меняется власть. Главным делом жизни новый префект города объявляет строительство кладбища…

Сэмпл: http://multi-up.com/580784

Качество видео: SATRip
Формат видео: AVI

Видео: 704x400 (1.76:1), 25 fps, XviD build 50 ~1743 kbps avg, 0.25 bit/pixel
Аудио: 48 kHz, MPEG Layer 3, 2 ch, ~128.00 kbps avg
MediaInfo
General
Complete name : E:\о\O.Bem.Amado..avi
Format : AVI
Format/Info : Audio Video Interleave
File size : 1.36 GiB
Duration : 1h 43mn
Overall bit rate : 1 881 Kbps
Writing application : VirtualDubMod 1.5.4.1 (build 2178/release)
Writing library : VirtualDub-MPEG2 build 24586/release

Video
ID : 0
Format : MPEG-4 Visual
Format profile : Advanced Simple@L5
Format settings, BVOP : 1
Format settings, QPel : No
Format settings, GMC : No warppoints
Format settings, Matrix : Custom
Codec ID : XVID
Codec ID/Hint : XviD
Duration : 1h 43mn
Bit rate : 1 743 Kbps
Width : 704 pixels
Height : 400 pixels
Display aspect ratio : 16:9
Frame rate : 25.000 fps
Color space : YUV
Chroma subsampling : 4:2:0
Bit depth : 8 bits
Scan type : Progressive
Compression mode : Lossy
Bits/(Pixel*Frame) : 0.248
Stream size : 1.26 GiB (93%)
Writing library : XviD 1.2.1 (UTC 2008-12-04)

Audio
ID : 1
Format : MPEG Audio
Format version : Version 1
Format profile : Layer 3
Mode : Joint stereo
Mode extension : MS Stereo
Codec ID : 55
Codec ID/Hint : MP3
Duration : 1h 43mn
Bit rate mode : Constant
Bit rate : 128 Kbps
Channel(s) : 2 channels
Sampling rate : 48.0 KHz
Compression mode : Lossy
Stream size : 95.0 MiB (7%)
Alignment : Aligned on interleaves
Interleave, duration : 40 ms (1.00 video frame)
Interleave, preload duration : 504 ms
Writing library : LAME3.98r
Encoding settings : -m j -V 4 -q 2 -lowpass 17 -b 128
Скриншоты



загрузка...
Правила, инструкции, FAQ!!!
Торрент  Добавлен [16 фев 2014, 13:08] Скачать торрент
Скачать торрент
[ Размер 14.1 КБ / Просмотров 8 ]

Статус  
 
Размер  1.36 ГБ
Приватный: Нет (DHT включён)
.torrent скачан  0
Как залить торрент? | Как скачать Torrent? | Как смотреть и слушать онлайн?  


     Отправить личное сообщение
   
Страница 1 из 1
Показать сообщения за:  Поле сортировки  
Начать новую тему Ответить на тему

   Похожие торренты   Автор   Ответы   Просмотры   Последнее сообщение 
В этой теме нет новых непрочитанных сообщений. Скачать торрент Проверен [iPhone] Солдаты (Сергей Арланов, Лиза Клейнот, Влад Николаев, Фёдор Краснопёров, Дмитрий Кузьмин, Андрей Головков, Кира Ангелина, Дмитрий Магонов) [2004-2010, Лирическая комедия, SATRip, 480x368]

в форуме Фильмы для iPod, iPhone, iPad, Размер: 151.57 ГБ, Здоровье: 100%

Гость

0
9|2

69
0

12 май 2015, 00:13

Гость Перейти к последнему сообщению

В этой теме нет новых непрочитанных сообщений. Скачать торрент Проверен Благодетель / The Rainmaker (1997) BDRip 720p | D,P,P1,A

в форуме 720p | 1080p, Размер: 6.12 ГБ, Здоровье: 100%

Anonymous

0
123|37

39
234

05 янв 2015, 22:15

Anonymous Перейти к последнему сообщению

В этой теме нет новых непрочитанных сообщений. Скачать торрент Проверен Благодетель / The Rainmaker (1997) BDRip 1080p

в форуме 720p | 1080p, Размер: 12.4 ГБ, Здоровье: 100%

Anonymous

0
21|5

34
114

05 янв 2015, 22:20

Anonymous Перейти к последнему сообщению

В этой теме нет новых непрочитанных сообщений. Скачать торрент Проверен Ха-би-ассы (Анатолий Матешко) [1990 г., комедия, сюрреализм, SATRip]

в форуме Кино СССР, Размер: 4.34 ГБ, Здоровье: 100%

Anonymous

0
14|2

154
2

21 окт 2014, 21:00

Anonymous Перейти к последнему сообщению

В этой теме нет новых непрочитанных сообщений. Скачать торрент Проверен Без страха и упрёка (Александр Митта) [1962, комедия, SATRip]

в форуме Детское, Семейное кино, Размер: 910.37 МБ, Здоровье: 100%

Гость

0
8|2

31
0

10 апр 2016, 20:20

Гость Перейти к последнему сообщению



Сейчас этот форум просматривают: нет зарегистрированных пользователей и гости: 1


Вы не можете начинать темы
Вы не можете отвечать на сообщения
Вы не можете редактировать свои сообщения
Вы не можете удалять свои сообщения
Вы не можете добавлять вложения

Перейти:  

!ВНИМАНИЕ!
 Ресурс не предоставляет электронные версии произведений, а занимается лишь коллекционированием и каталогизацией ссылок, присылаемых и публикуемых на форуме нашими читателями. Если вы являетесь правообладателем какого-либо представленного материала и не желаете чтобы ссылка на него находилась в нашем каталоге, свяжитесь с нами и мы незамедлительно удалим её. Файлы для обмена на трекере предоставлены пользователями сайта, и администрация не несёт ответственности за их содержание. Просьба не заливать файлы, защищенные авторскими правами, а также файлы нелегального содержания!