На всех торрентах на трекере установлена скидка на скачивание в размере 100 процентов(а).
 Возможность скачивания торрента НЕ зависит от ограничений при низком ратио, низком аплоаде, требуемом ратио или требуемом аплоаде.


Начать новую тему Ответить на тему
Статистика раздачи
Размер: 4.27 ГБ | Добавлен: 05 авг 2016, 23:36 | Скачали: 5
Сидеров: 17  [0 байт/сек]    Личеров: 242  [0 байт/сек]
Пред. тема | След. тема 

Автор
Сообщение

СообщениеДобавлено: 21 июл 2014, 10:47 

Ответить с цитатой 

Blackfoot - 14 альбомов (1975 - 2007)

Год: 1975 - 2007
Жанр: Southern Rock, Hard Rock
Продолжительность: 09:53:40

Кодек: FLAC, APE, WavPack
Битрейт: Lossless
Описание: Наряду с "Lynyrd skynyrd" эта группа являлась одним из зачинщиков так называемого «южного рока». Вывеска "Blackfoot" появилась в 1970 году. Основатель проекта Rick Medlocke уже успел испробовать себя в качестве басиста, гитариста, вокалиста и ударника в ряде других команд. Остальными членами "Blackfoot" стали партнеры Rick по предыдущей группе "Fresh garbage" Charlie Hargrett (гитара), Greg Walker (бас) и Jakson Spires (ударные). В начале 80-х группа с полным правом выступала на престижных турах вместе с "Who", "AC/DC" и "Scorpions", а в 1981-м на разогреве у "Blackfoot" играли "Def leppard". Альбмы Blackfoot - Siogo (1983) и Blackfoot - Vertical Smiles (1984) выпускались в период, когда в банде играл Ken Hensley из Uriah Heep, как раз только переехавший на житье-бытье в США.

--------------------------------------------------------------------------------------------------------------------------------------------------------------------------

Альбомы:
#777Треклист:

01. Railroad Man (2:25)
02. Indian World (2:55)
03. Stars (4:04)
04. Not Another Maker (5:11)
05. Born To Rock & Roll (3:37)
06. Take a Train (4:24)
07. Big Wheels (5:07)
08. I Stand Alone (7:50)
09. Railroad Man 2 (1:19)
Код:
Код:
Exact Audio Copy V0.99 prebeta 5 from 4. May 2009

Отчёт EAC об извлечении, выполненном 16. августа 2009, 11:13

Blackfoot / No Reservations

Дисковод: _NEC    DV-5800E   Adapter: 4  ID: 1

Режим чтения                 : Достоверность
Использование точного потока : Да
Отключение кэша аудио        : Да
Использование указателей C2  : Нет

Коррекция смещения при чтении                     : 6
Способность читать области Lead-in и Lead-out     : Нет
Заполнение пропущенных сэмплов тишиной            : Да
Удаление блоков с тишиной в начале и конце        : Нет
При вычислениях CRC использовались нулевые сэмплы : Да
Интерфейс                                         : Встроенный Win32-интерфейс для Win NT/2000

Выходной формат : Monkey's Audio Lossless Encoder v3.99 DLL
Формат сэмплов  : Fast Lossless Compression

TOC извлечённого CD

     Трек |   Старт  | Длительность | Начальный сектор | Конечный сектор
    ---------------------------------------------------------------------
       1  |  0:00.00 |    2:24.41   |           0      |      10840
       2  |  2:24.41 |    2:55.25   |       10841      |      23990
       3  |  5:19.66 |    4:04.25   |       23991      |      42315
       4  |  9:24.16 |    5:10.50   |       42316      |      65615
       5  | 14:34.66 |    3:36.52   |       65616      |      81867
       6  | 18:11.43 |    4:23.49   |       81868      |     101641
       7  | 22:35.17 |    5:06.49   |      101642      |     124640
       8  | 27:41.66 |    7:50.00   |      124641      |     159890
       9  | 35:31.66 |    1:19.37   |      159891      |     165852

Характеристики диапазона извлечения и сообщения об ошибках

Выбранный диапазон

     Имя файла C:\Users\Владими\Documents\Blackfoot - No Reservations.ape

     Пиковый уровень 98.0 %
     Качество диапазона 100.0 %
     CRC копии AB15969A
     Копирование... OK

Ошибок не произошло

AccurateRip: сводка

Трек  1  нет в базе данных
Трек  2  нет в базе данных
Трек  3  нет в базе данных
Трек  4  нет в базе данных
Трек  5  нет в базе данных
Трек  6  нет в базе данных
Трек  7  нет в базе данных
Трек  8  нет в базе данных
Трек  9  нет в базе данных

Ни одного трека нет в базе AccurateRip

Конец отчёта
Код:
Код:
-----------------------

DON'T MODIFY THIS FILE

-----------------------

PERFORMER: auCDtect Task Manager, ver. 1.6.0 RC1 build 1.6.0.1
Copyright (c) 2008-2010 y-soft. All rights reserved
http:/y-soft.org

ANALYZER: auCDtect: CD records authenticity detector, version 0.8.2
Copyright (c) 2004 Oleg Berngardt. All rights reserved.
Copyright (c) 2004 Alexander Djourik. All rights reserved.

FILE: Blackfoot - No Reservations.ape
  Size: 260211261 Hash: 97A68A053C05296BE8D9908956FCAFCD Accuracy: -m0
  Conclusion: CDDA 100%
  Signature: AA73F14EFF6E7968DEBB6989D37D6E6C02B9E6E0
Продолжительность - 00:36:51
APE (image+.cue)
#777Треклист:

01. Feelin' Good (2:49)
02. Flyin' High (4:21)
03. Try A Little Harder (4:49)
04. Stranger On The Road (2:45)
05. Save Your Time (3:44)
06. Dancin' Man (3:41)
07. Island Of Life (4:08)
08. Junkie's Dream (3:58)
09. Madness (4:57)
10. Mother (2:46)
Код:
Код:
Exact Audio Copy V1.0 beta 3 from 29. August 2011

EAC extraction logfile from 4. December 2012, 22:24

Blackfoot / Flyin' High

Used drive  : MATSHITADVD-RAM UJ-844S   Adapter: 1  ID: 0

Read mode               : Secure
Utilize accurate stream : Yes
Defeat audio cache      : Yes
Make use of C2 pointers : No

Read offset correction                      : 102
Overread into Lead-In and Lead-Out          : No
Fill up missing offset samples with silence : Yes
Delete leading and trailing silent blocks   : No
Null samples used in CRC calculations       : Yes
Used interface                              : Native Win32 interface for Win NT & 2000
Gap handling                                : Appended to previous track

Used output format              : User Defined Encoder
Selected bitrate                : 1024 kBit/s
Quality                         : High
Add ID3 tag                     : No
Command line compressor         : C:\Program Files (x86)\Exact Audio Copy\FLAC\FLAC.EXE
Additional command line options : -8 -V -T "ARTIST=%artist%" -T "TITLE=%title%" -T "ALBUM=%albumtitle%" -T "DATE=%year%" -T "TRACKNUMBER=%tracknr%" -T "GENRE=%genre%" -T "PERFORMER=%albuminterpret%" -T "COMPOSER=%composer%" %haslyrics%--tag-from-file=LYRICS="%lyricsfile%"%haslyrics% -T "ALBUMARTIST=%albumartist%" -T "DISCNUMBER=%cdnumber%" -T "TOTALDISCS=%totalcds%" -T "TOTALTRACKS=%numtracks%" -T "COMMENT=%comment%" %source% -o %dest%

TOC of the extracted CD

     Track |   Start  |  Length  | Start sector | End sector
    ---------------------------------------------------------
        1  |  0:00.00 |  2:49.00 |         0    |    12674
        2  |  2:49.00 |  4:20.57 |     12675    |    32231
        3  |  7:09.57 |  4:49.28 |     32232    |    53934
        4  | 11:59.10 |  2:44.55 |     53935    |    66289
        5  | 14:43.65 |  3:44.12 |     66290    |    83101
        6  | 18:28.02 |  3:40.38 |     83102    |    99639
        7  | 22:08.40 |  4:07.65 |     99640    |   118229
        8  | 26:16.30 |  3:57.47 |    118230    |   136051
        9  | 30:14.02 |  4:57.03 |    136052    |   158329
       10  | 35:11.05 |  2:45.52 |    158330    |   170756

Track  1

     Filename C:\Users\Chad\Music\Blackfoot - Flyin' High\01 - Feelin' Good.wav

     Pre-gap length  0:00:02.00

     Peak level 86.9 %
     Extraction speed 2.0 X
     Track quality 99.9 %
     Test CRC 5A5B5CBA
     Copy CRC 5A5B5CBA
     Cannot be verified as accurate (confidence 4)  [8ADB33CF], AccurateRip returned [02F73018]  (AR v2)
     Copy OK

Track  2

     Filename C:\Users\Chad\Music\Blackfoot - Flyin' High\02 - Flyin' High.wav

     Pre-gap length  0:00:01.84

     Peak level 94.6 %
     Extraction speed 2.8 X
     Track quality 100.0 %
     Test CRC 49D3D763
     Copy CRC 49D3D763
     Cannot be verified as accurate (confidence 4)  [ED7E7F1E], AccurateRip returned [10E43C41]  (AR v2)
     Copy OK

Track  3

     Filename C:\Users\Chad\Music\Blackfoot - Flyin' High\03 - Try A Little Harder.wav

     Pre-gap length  0:00:00.82

     Peak level 98.2 %
     Extraction speed 3.1 X
     Track quality 100.0 %
     Test CRC 1AEA68BC
     Copy CRC 1AEA68BC
     Cannot be verified as accurate (confidence 4)  [8D8B850C], AccurateRip returned [B903B0D9]  (AR v2)
     Copy OK

Track  4

     Filename C:\Users\Chad\Music\Blackfoot - Flyin' High\04 - Stranger On The Road.wav

     Pre-gap length  0:00:00.84

     Peak level 95.3 %
     Extraction speed 3.0 X
     Track quality 100.0 %
     Test CRC 1E3942CA
     Copy CRC 1E3942CA
     Cannot be verified as accurate (confidence 4)  [F94D2C20], AccurateRip returned [BF2B39D8]  (AR v2)
     Copy OK

Track  5

     Filename C:\Users\Chad\Music\Blackfoot - Flyin' High\05 - Save Your Time.wav

     Pre-gap length  0:00:01.73

     Peak level 90.5 %
     Extraction speed 3.4 X
     Track quality 100.0 %
     Test CRC FE9117CD
     Copy CRC FE9117CD
     Cannot be verified as accurate (confidence 4)  [535301C5], AccurateRip returned [5981BF88]  (AR v2)
     Copy OK

Track  6

     Filename C:\Users\Chad\Music\Blackfoot - Flyin' High\06 - Dancin' Man.wav

     Pre-gap length  0:00:00.82

     Peak level 97.7 %
     Extraction speed 3.5 X
     Track quality 100.0 %
     Test CRC 908AC3A8
     Copy CRC 908AC3A8
     Cannot be verified as accurate (confidence 4)  [074809B5], AccurateRip returned [D8547F5F]  (AR v2)
     Copy OK

Track  7

     Filename C:\Users\Chad\Music\Blackfoot - Flyin' High\07 - Island Of Life.wav

     Pre-gap length  0:00:01.84

     Peak level 98.2 %
     Extraction speed 3.7 X
     Track quality 100.0 %
     Test CRC 040803DD
     Copy CRC 040803DD
     Cannot be verified as accurate (confidence 4)  [F6FB02C6], AccurateRip returned [BEC97CBF]  (AR v2)
     Copy OK

Track  8

     Filename C:\Users\Chad\Music\Blackfoot - Flyin' High\08 - Junkie's Dream.wav

     Pre-gap length  0:00:00.84

     Peak level 92.3 %
     Extraction speed 3.8 X
     Track quality 100.0 %
     Test CRC 4ECA9F59
     Copy CRC 4ECA9F59
     Cannot be verified as accurate (confidence 4)  [155563D2], AccurateRip returned [5A538ABD]  (AR v2)
     Copy OK

Track  9

     Filename C:\Users\Chad\Music\Blackfoot - Flyin' High\09 - Madness.wav

     Pre-gap length  0:00:00.82

     Peak level 98.1 %
     Extraction speed 4.1 X
     Track quality 100.0 %
     Test CRC E7C22C5B
     Copy CRC E7C22C5B
     Cannot be verified as accurate (confidence 4)  [B2C155E7], AccurateRip returned [7A4A06EF]  (AR v2)
     Copy OK

Track 10

     Filename C:\Users\Chad\Music\Blackfoot - Flyin' High\10 - Mother.wav

     Pre-gap length  0:00:00.84

     Peak level 93.8 %
     Extraction speed 3.4 X
     Track quality 99.9 %
     Test CRC D20D9B68
     Copy CRC D20D9B68
     Cannot be verified as accurate (confidence 4)  [7F2810E0], AccurateRip returned [EB482446]  (AR v2)
     Copy OK

No tracks could be verified as accurate
You may have a different pressing from the one(s) in the database

No errors occurred

End of status report

---- CUETools DB Plugin V2.1.3

[CTDB TOCID: 22o6h2o6j3.klJ0jSdl.VetQKsA-] found, Submit result: 22o6h2o6j3.klJ0jSdl.VetQKsA- has been confirmed
[94e0ed96] (5/5) Accurately ripped

==== Log checksum 39A57B3710D3119289210B511EA3294D59CC1CB4727D7997FA8BD1F428A192CD ====
Код:
Код:
-----------------------

DON'T MODIFY THIS FILE

-----------------------

PERFORMER: auCDtect Task Manager, ver. 1.6.0 RC1 build 1.6.0.1
Copyright (c) 2008-2010 y-soft. All rights reserved
http:/y-soft.org

ANALYZER: auCDtect: CD records authenticity detector, version 0.8.2
Copyright (c) 2004 Oleg Berngardt. All rights reserved.
Copyright (c) 2004 Alexander Djourik. All rights reserved.

FILE: 10 - Mother.flac
  Size: 17661714 Hash: 7A70BCCBEA3D74EC77F074893334FFCE Accuracy: -m0
  Conclusion: CDDA 100%
  Signature: FBC6910576B673ED4B4F73E0148730A24D8A050D
FILE: 09 - Madness.flac
  Size: 33633469 Hash: FDD3AE4BE4B92B6051947D021733DB22 Accuracy: -m0
  Conclusion: CDDA 100%
  Signature: 8B88166FF0E376EFA043BC1E5CE41E913967B632
FILE: 08 - Junkie's Dream.flac
  Size: 27365957 Hash: 9F5D15C308548E20F74B2FD6F38B4F79 Accuracy: -m0
  Conclusion: CDDA 100%
  Signature: 4B18695A4599F5B9D1E3A80BD8721756132CEE02
FILE: 07 - Island Of Life.flac
  Size: 28708348 Hash: 56676A01E695CF1F107E3E85B80BAC56 Accuracy: -m0
  Conclusion: CDDA 100%
  Signature: 07FD5B11F8277C527B19926153B7A2228EFCB656
FILE: 06 - Dancin' Man.flac
  Size: 27092910 Hash: 03E94D6325A533C9953074A20F5BFFF1 Accuracy: -m0
  Conclusion: CDDA 100%
  Signature: BB4DD0BD19AC929B4002B529BA972CB606F7F10F
FILE: 05 - Save Your Time.flac
  Size: 24615957 Hash: 7A7BA9DF34FA1DE90D855A6C66D3DBB7 Accuracy: -m0
  Conclusion: CDDA 100%
  Signature: 88696C8A1DCBED95513585124DFE0C11EA722370
FILE: 04 - Stranger On The Road.flac
  Size: 20083650 Hash: 9A781CC354151732523886152E50F15F Accuracy: -m0
  Conclusion: CDDA 100%
  Signature: 5383F7ECF1FC331A213DD1C8690CB135E8B9A67D
FILE: 03 - Try A Little Harder.flac
  Size: 29980935 Hash: 5B64290C85D542848C06295B96C7F09C Accuracy: -m0
  Conclusion: CDDA 100%
  Signature: DE12E916AD85950AA57A6BCD21FF675EBCDB09B9
FILE: 02 - Flyin' High.flac
  Size: 29070542 Hash: F95180AF942EEEB5D5AB5354B858493C Accuracy: -m0
  Conclusion: CDDA 100%
  Signature: A96E35B9CFC8889EEF12875B6DE3131A2F93CCDC
FILE: 01 - Feelin' Good.flac
  Size: 20155789 Hash: 76937B2D21520F13971F3B8910D453BE Accuracy: -m0
  Conclusion: CDDA 100%
  Signature: C6470D7B8A041CF724EA84CE146D0C424C0F0F01
Продолжительность - 00:37:57
FLAC (tracks+.cue)
#777Треклист:

01. Road Fever (3:11)
02. I Got A Line On You (3:20)
03. Left Turn On A Red Light (4:39)
04. Pay My Dues (3:06)
05. Baby Blue (2:38)
06. Wishing Well (3:13)
07. Run And Hide (3:27)
08. Train, Train (Prelude) (0:36)
09. Train, Train (2:59)
10. Highway Song (7:03)
Код:
Код:
Exact Audio Copy V1.0 beta 3 from 29. August 2011

EAC extraction logfile from 3. March 2013, 11:48

Blackfoot / Strikes

Used drive  : PLEXTOR BD-R  PX-B950SA   Adapter: 6  ID: 0

Read mode               : Secure
Utilize accurate stream : Yes
Defeat audio cache      : Yes
Make use of C2 pointers : No

Read offset correction                      : 6
Overread into Lead-In and Lead-Out          : No
Fill up missing offset samples with silence : Yes
Delete leading and trailing silent blocks   : No
Null samples used in CRC calculations       : Yes
Used interface                              : Native Win32 interface for Win NT & 2000

Used output format : Internal WAV Routines
Sample format      : 44.100 Hz; 16 Bit; Stereo

TOC of the extracted CD

     Track |   Start  |  Length  | Start sector | End sector
    ---------------------------------------------------------
        1  |  0:00.00 |  3:10.44 |         0    |    14293
        2  |  3:10.44 |  3:19.50 |     14294    |    29268
        3  |  6:30.19 |  4:38.51 |     29269    |    50169
        4  | 11:08.70 |  3:06.03 |     50170    |    64122
        5  | 14:14.73 |  2:37.63 |     64123    |    75960
        6  | 16:52.61 |  3:12.70 |     75961    |    90430
        7  | 20:05.56 |  3:26.47 |     90431    |   105927
        8  | 23:32.28 |  0:36.22 |    105928    |   108649
        9  | 24:08.50 |  2:58.72 |    108650    |   122071
       10  | 27:07.47 |  7:03.25 |    122072    |   153821

Range status and errors

Selected range

     Filename C:\Users\Meijin\Desktop\Lossless Galaxy Rip by ALLexxess\Blackfoot\2013 Original Album Series (5CD Box Set Rhino Records)\1979 Strikes\Blackfoot - Strikes.wav

     Peak level 100.0 %
     Extraction speed 6.4 X
     Range quality 100.0 %
     Test CRC FE71B05A
     Copy CRC FE71B05A
     Copy OK

No errors occurred

AccurateRip summary

Track  1  cannot be verified as accurate (confidence 1)  [5CEA9483], AccurateRip returned [703D5127]  (AR v2)
Track  2  cannot be verified as accurate (confidence 1)  [F6E9878F], AccurateRip returned [CBEFB717]  (AR v2)
Track  3  cannot be verified as accurate (confidence 1)  [7549D7CF], AccurateRip returned [54F85956]  (AR v2)
Track  4  cannot be verified as accurate (confidence 1)  [B1D3B4B0], AccurateRip returned [46BB8742]  (AR v2)
Track  5  cannot be verified as accurate (confidence 1)  [1428A5F9], AccurateRip returned [632AABC8]  (AR v2)
Track  6  cannot be verified as accurate (confidence 1)  [F4661716], AccurateRip returned [0498A6AD]  (AR v2)
Track  7  cannot be verified as accurate (confidence 1)  [15F7C746], AccurateRip returned [1F5396EC]  (AR v2)
Track  8  cannot be verified as accurate (confidence 1)  [48FF8480], AccurateRip returned [EA61080B]  (AR v2)
Track  9  cannot be verified as accurate (confidence 1)  [C0C798B9], AccurateRip returned [0F3C3251]  (AR v2)
Track 10  cannot be verified as accurate (confidence 1)  [A11F06FD], AccurateRip returned [798C47F8]  (AR v2)

No tracks could be verified as accurate
You may have a different pressing from the one(s) in the database

End of status report

==== Log checksum EB2C7997ADDB8B85F7E8AC0BE27229988D3B941131A0526FE326432AAA4D2481 ====
Код:
Код:
-----------------------

DON'T MODIFY THIS FILE

-----------------------

PERFORMER: auCDtect Task Manager, ver. 1.6.0 RC1 build 1.6.0.1
Copyright (c) 2008-2010 y-soft. All rights reserved
http:/y-soft.org

ANALYZER: auCDtect: CD records authenticity detector, version 0.8.2
Copyright (c) 2004 Oleg Berngardt. All rights reserved.
Copyright (c) 2004 Alexander Djourik. All rights reserved.

FILE: Blackfoot - Strikes.flac
  Size: 253543737 Hash: A97B9322DA1D335CEE83993668514997 Accuracy: -m0
  Conclusion: CDDA 99%
  Signature: 6317E3F0573E96394BB1F6E592E245977651CCEF
Продолжительность - 00:34:11
FLAC (image+.cue)
#777Треклист:

01. Warped (4:13)
02. On The Run (4:00)
03. Dream On (5:18)
04. Street Fighter (2:35)
05. Gimme, Gimme, Gimme (4:07)
06. Every Man Should Know (Queenie) (3:45)
07. In The Night (3:52)
08. Reckless Abandoner (5:14)
09. Spendin' Cabbage (3:16)
10. Fox Chase (4:23)
Код:
Код:
Exact Audio Copy V1.0 beta 3 from 29. August 2011

EAC extraction logfile from 3. March 2013, 11:19

Blackfoot / Tomcattin'

Used drive  : PLEXTOR BD-R  PX-B950SA   Adapter: 6  ID: 0

Read mode               : Secure
Utilize accurate stream : Yes
Defeat audio cache      : Yes
Make use of C2 pointers : No

Read offset correction                      : 6
Overread into Lead-In and Lead-Out          : No
Fill up missing offset samples with silence : Yes
Delete leading and trailing silent blocks   : No
Null samples used in CRC calculations       : Yes
Used interface                              : Native Win32 interface for Win NT & 2000

Used output format : Internal WAV Routines
Sample format      : 44.100 Hz; 16 Bit; Stereo

TOC of the extracted CD

     Track |   Start  |  Length  | Start sector | End sector
    ---------------------------------------------------------
        1  |  0:00.00 |  4:13.22 |         0    |    18996
        2  |  4:13.22 |  4:00.35 |     18997    |    37031
        3  |  8:13.57 |  5:17.42 |     37032    |    60848
        4  | 13:31.24 |  2:35.20 |     60849    |    72493
        5  | 16:06.44 |  4:07.20 |     72494    |    91038
        6  | 20:13.64 |  3:44.54 |     91039    |   107892
        7  | 23:58.43 |  3:52.28 |    107893    |   125320
        8  | 27:50.71 |  5:14.12 |    125321    |   148882
        9  | 33:05.08 |  3:16.35 |    148883    |   163617
       10  | 36:21.43 |  4:22.47 |    163618    |   183314

Range status and errors

Selected range

     Filename C:\Users\Meijin\Desktop\Lossless Galaxy Rip by ALLexxess\Blackfoot\2013 Original Album Series (5CD Box Set Rhino Records)\1980 Tomcattin'\Blackfoot - Tomcattin'.wav

     Peak level 99.9 %
     Extraction speed 6.6 X
     Range quality 99.9 %
     Test CRC D0F7CDE7
     Copy CRC D0F7CDE7
     Copy OK

No errors occurred

AccurateRip summary

Track  1  cannot be verified as accurate (confidence 1)  [2067FC07], AccurateRip returned [FB3A5234]  (AR v2)
Track  2  cannot be verified as accurate (confidence 1)  [BA34579F], AccurateRip returned [65DB086D]  (AR v2)
Track  3  cannot be verified as accurate (confidence 1)  [D8A52DDC], AccurateRip returned [BD19CFDC]  (AR v2)
Track  4  cannot be verified as accurate (confidence 1)  [53B683D6], AccurateRip returned [8D865B16]  (AR v2)
Track  5  cannot be verified as accurate (confidence 1)  [89A707E5], AccurateRip returned [166B2A88]  (AR v2)
Track  6  cannot be verified as accurate (confidence 1)  [27F7BF91], AccurateRip returned [FD890A24]  (AR v2)
Track  7  cannot be verified as accurate (confidence 1)  [0034646D], AccurateRip returned [5EDE6A4D]  (AR v2)
Track  8  cannot be verified as accurate (confidence 1)  [993E8DA3], AccurateRip returned [99BA0DBD]  (AR v2)
Track  9  cannot be verified as accurate (confidence 1)  [2A018990], AccurateRip returned [DE301764]  (AR v2)
Track 10  cannot be verified as accurate (confidence 1)  [C00242C1], AccurateRip returned [22F98AEB]  (AR v2)

No tracks could be verified as accurate
You may have a different pressing from the one(s) in the database

End of status report

==== Log checksum 51E7C83FD0A94B018249905F296224C166415ECE337F58F1936F9C1E92D64FA1 ====
Код:
Код:
-----------------------

DON'T MODIFY THIS FILE

-----------------------

PERFORMER: auCDtect Task Manager, ver. 1.6.0 RC1 build 1.6.0.1
Copyright (c) 2008-2010 y-soft. All rights reserved
http:/y-soft.org

ANALYZER: auCDtect: CD records authenticity detector, version 0.8.2
Copyright (c) 2004 Oleg Berngardt. All rights reserved.
Copyright (c) 2004 Alexander Djourik. All rights reserved.

FILE: Blackfoot - Tomcattin'.flac
  Size: 292115144 Hash: F01C804AC678CC5C903F9310B3323BDC Accuracy: -m0
  Conclusion: CDDA 100%
  Signature: F338A9D40165D40A53D915E4B76026C5A67474A0
Продолжительность - 00:40:44
FLAC (image+.cue)
#777Треклист:

01. Good Morning (3:37)
02. Payin' For It (3:39)
03. Diary Of A Workingman (5:36)
04. Too Hard To Handle (4:03)
05. Fly Away (2:58)
06. Dry County (3:42)
07. Fire Of The Dragon (4:04)
08. Rattlesnake Rock 'N' Roller (4:02)
09. Searchin' (5:35)
Код:
Код:
Exact Audio Copy V1.0 beta 3 from 29. August 2011

EAC extraction logfile from 3. March 2013, 10:05

Blackfoot / Marauder

Used drive  : PLEXTOR BD-R  PX-B950SA   Adapter: 6  ID: 0

Read mode               : Secure
Utilize accurate stream : Yes
Defeat audio cache      : Yes
Make use of C2 pointers : No

Read offset correction                      : 6
Overread into Lead-In and Lead-Out          : No
Fill up missing offset samples with silence : Yes
Delete leading and trailing silent blocks   : No
Null samples used in CRC calculations       : Yes
Used interface                              : Native Win32 interface for Win NT & 2000

Used output format : Internal WAV Routines
Sample format      : 44.100 Hz; 16 Bit; Stereo

TOC of the extracted CD

     Track |   Start  |  Length  | Start sector | End sector
    ---------------------------------------------------------
        1  |  0:00.00 |  3:37.16 |         0    |    16290
        2  |  3:37.16 |  3:38.52 |     16291    |    32692
        3  |  7:15.68 |  5:36.33 |     32693    |    57925
        4  | 12:52.26 |  4:02.56 |     57926    |    76131
        5  | 16:55.07 |  2:57.55 |     76132    |    89461
        6  | 19:52.62 |  3:41.44 |     89462    |   106080
        7  | 23:34.31 |  4:04.27 |    106081    |   124407
        8  | 27:38.58 |  4:01.51 |    124408    |   142533
        9  | 31:40.34 |  5:35.23 |    142534    |   167681

Range status and errors

Selected range

     Filename C:\Users\Meijin\Desktop\Lossless Galaxy Rip by ALLexxess\Blackfoot\2013 Original Album Series (5CD Box Set Rhino Records)\1981 Marauder\Blackfoot - Marauder.wav

     Peak level 100.0 %
     Extraction speed 6.6 X
     Range quality 100.0 %
     Test CRC 58FC1963
     Copy CRC 58FC1963
     Copy OK

No errors occurred

AccurateRip summary

Track  1  not present in database
Track  2  not present in database
Track  3  not present in database
Track  4  not present in database
Track  5  not present in database
Track  6  not present in database
Track  7  not present in database
Track  8  not present in database
Track  9  not present in database

None of the tracks are present in the AccurateRip database

End of status report

==== Log checksum A3DF0CD1FC7451F6249FEC5070CCED1CBA1A6FDA75DC9C0C17FB27F43F50881A ====
Код:
Код:
-----------------------

DON'T MODIFY THIS FILE

-----------------------

PERFORMER: auCDtect Task Manager, ver. 1.6.0 RC1 build 1.6.0.1
Copyright (c) 2008-2010 y-soft. All rights reserved
http:/y-soft.org

ANALYZER: auCDtect: CD records authenticity detector, version 0.8.2
Copyright (c) 2004 Oleg Berngardt. All rights reserved.
Copyright (c) 2004 Alexander Djourik. All rights reserved.

FILE: Blackfoot - Marauder.flac
  Size: 269223681 Hash: 4E1D94A91157376CF1084636F3D64273 Accuracy: -m0
  Conclusion: CDDA 100%
  Signature: 3A5A619A21B25BF3E28A2381333C50EA7CB47EC3
Продолжительность - 00:37:16
FLAC (image+.cue)
#777Треклист:

01. Gimme, Gimme, Gimme (4:57)
02. Every Man Should Know (Queenie) (5:31)
03. Good Morning (3:49)
04. Dry County (3:33)
05. Rollin' & Tumblin' (2:04)
06. Fly Away (3:27)
07. Road Fever (3:39)
08. Trouble In Mind (3:59)
09. Train, Train (5:54)
10. Highway Song (8:46)
11. Howay The Lads (0:53)
Код:
Код:
EAC extraction logfile from 9. September 2011, 10:26 for CD
Blackfoot / Highway Song Live

Used drive  : Used drive  : HL-DT-STDVDRAM GSA-H12N   Adapter: 1  ID: 0
Read mode   : Secure with NO C2, accurate stream, disable cache
Read offset correction : 667
Overread into Lead-In and Lead-Out : No

Used output format : Internal WAV Routines
                     44.100 Hz; 16 Bit; Stereo

Other options      :
    Fill up missing offset samples with silence : Yes
    Delete leading and trailing silent blocks : No
    Native Win32 interface for Win NT & 2000

Range status and errors
Selected range
     Filename C:\Users\Anatoli\Documents\Fax\Blackfoot - Highway Song Live.wav

     Peak level 97.2 %
     Range quality 100.0 %
     CRC 514BED56
     Copy OK

No errors occured

End of status report
Код:
Код:
-----------------------

DON'T MODIFY THIS FILE

-----------------------

PERFORMER: auCDtect Task Manager, ver. 1.6.0 RC1 build 1.6.0.1
Copyright (c) 2008-2010 y-soft. All rights reserved
http:/y-soft.org

ANALYZER: auCDtect: CD records authenticity detector, version 0.8.2
Copyright (c) 2004 Oleg Berngardt. All rights reserved.
Copyright (c) 2004 Alexander Djourik. All rights reserved.

FILE: Blackfoot - Highway Song Live.ape
  Size: 320310696 Hash: 3EB79743E048E30721A164130DFC56FB Accuracy: -m0
  Conclusion: CDDA 100%
  Signature: 31740E5ABE022C27D400D98E720EF80A34BC143B
Продолжительность - 00:46:31
APE (image+.cue)
#777Треклист:

01. Send Me An Angel (4:39)
02. Crossfire (4:19)
03. Heart's Grown Cold (3:24)
04. We're Goin' Down (4:14)
05. Teenage Idol (4:50)
06. Goin' In Circles (3:09)
07. Run For Cover (4:22)
08. White Man's Land (2:57)
09. Sail Away (4:32)
10. Drivin' Fool (4:46)
Код:
Код:
Exact Audio Copy V1.0 beta 3 from 29. August 2011

EAC extraction logfile from 3. March 2013, 10:45

Blackfoot / Siogo

Used drive  : PLEXTOR BD-R  PX-B950SA   Adapter: 6  ID: 0

Read mode               : Secure
Utilize accurate stream : Yes
Defeat audio cache      : Yes
Make use of C2 pointers : No

Read offset correction                      : 6
Overread into Lead-In and Lead-Out          : No
Fill up missing offset samples with silence : Yes
Delete leading and trailing silent blocks   : No
Null samples used in CRC calculations       : Yes
Used interface                              : Native Win32 interface for Win NT & 2000

Used output format : Internal WAV Routines
Sample format      : 44.100 Hz; 16 Bit; Stereo

TOC of the extracted CD

     Track |   Start  |  Length  | Start sector | End sector
    ---------------------------------------------------------
        1  |  0:00.00 |  4:38.74 |         0    |    20923
        2  |  4:38.74 |  4:19.11 |     20924    |    40359
        3  |  8:58.10 |  3:24.31 |     40360    |    55690
        4  | 12:22.41 |  4:14.36 |     55691    |    74776
        5  | 16:37.02 |  4:49.44 |     74777    |    96495
        6  | 21:26.46 |  3:08.51 |     96496    |   110646
        7  | 24:35.22 |  4:21.74 |    110647    |   130295
        8  | 28:57.21 |  2:56.47 |    130296    |   143542
        9  | 31:53.68 |  4:32.09 |    143543    |   163951
       10  | 36:26.02 |  4:45.62 |    163952    |   185388

Range status and errors

Selected range

     Filename C:\Users\Meijin\Desktop\Lossless Galaxy Rip by ALLexxess\Blackfoot\2013 Original Album Series (5CD Box Set Rhino Records)\1983 Siogo\Blackfoot - Siogo.wav

     Peak level 100.0 %
     Extraction speed 6.7 X
     Range quality 100.0 %
     Test CRC 766ECA66
     Copy CRC 766ECA66
     Copy OK

No errors occurred

AccurateRip summary

Track  1  not present in database
Track  2  not present in database
Track  3  not present in database
Track  4  not present in database
Track  5  not present in database
Track  6  not present in database
Track  7  not present in database
Track  8  not present in database
Track  9  not present in database
Track 10  not present in database

None of the tracks are present in the AccurateRip database

End of status report

==== Log checksum B330845ADE26698D317A7FD164D146470FC8FABB408B231361C9D6FC08CA1D4F ====
Код:
Код:
-----------------------

DON'T MODIFY THIS FILE

-----------------------

PERFORMER: auCDtect Task Manager, ver. 1.6.0 RC1 build 1.6.0.1
Copyright (c) 2008-2010 y-soft. All rights reserved
http:/y-soft.org

ANALYZER: auCDtect: CD records authenticity detector, version 0.8.2
Copyright (c) 2004 Oleg Berngardt. All rights reserved.
Copyright (c) 2004 Alexander Djourik. All rights reserved.

FILE: Blackfoot - Siogo.flac
  Size: 301754758 Hash: 60DEBB9B3171A65E2C501BD810BFB1CF Accuracy: -m0
  Conclusion: CDDA 100%
  Signature: 16A0CC9796219EB722423E21832A12625027ABA8
Продолжительность - 00:41:12
FLAC (image+.cue)
#777Треклист:

01. Morning Dew (5:28)
02. Livin' In The Limelight (4:03)
03. Ride With You (3:34)
04. Get It On (4:29)
05. Young Girl (4:24)
06. Summer Days (3:19)
07. A Legend Never Dies (3:03)
08. Heartbeat And Heels (3:16)
09. In For The Kill (3:51)
Код:
Код:
Exact Audio Copy V1.0 beta 3 from 29. August 2011

EAC extraction logfile from 2. March 2013, 19:42

Blackfoot / Vertical Smiles

Used drive  : PLEXTOR BD-R  PX-B950SA   Adapter: 6  ID: 0

Read mode               : Secure
Utilize accurate stream : Yes
Defeat audio cache      : Yes
Make use of C2 pointers : No

Read offset correction                      : 6
Overread into Lead-In and Lead-Out          : No
Fill up missing offset samples with silence : Yes
Delete leading and trailing silent blocks   : No
Null samples used in CRC calculations       : Yes
Used interface                              : Native Win32 interface for Win NT & 2000

Used output format : Internal WAV Routines
Sample format      : 44.100 Hz; 16 Bit; Stereo

TOC of the extracted CD

     Track |   Start  |  Length  | Start sector | End sector
    ---------------------------------------------------------
        1  |  0:00.00 |  5:27.72 |         0    |    24596
        2  |  5:27.72 |  4:02.54 |     24597    |    42800
        3  |  9:30.51 |  3:33.53 |     42801    |    58828
        4  | 13:04.29 |  4:29.03 |     58829    |    79006
        5  | 17:33.32 |  4:24.23 |     79007    |    98829
        6  | 21:57.55 |  3:19.06 |     98830    |   113760
        7  | 25:16.61 |  3:03.16 |    113761    |   127501
        8  | 28:20.02 |  3:15.44 |    127502    |   142170
        9  | 31:35.46 |  3:50.71 |    142171    |   159491

Range status and errors

Selected range

     Filename C:\Users\Meijin\Desktop\Lossless Galaxy Rip by ALLexxess\Blackfoot\2013 Original Album Series (5CD Box Set Rhino Records)\1984 Vertical Smiles\Blackfoot - Vertical Smiles.wav

     Peak level 100.0 %
     Extraction speed 6.5 X
     Range quality 100.0 %
     Test CRC F19B7CD2
     Copy CRC F19B7CD2
     Copy OK

No errors occurred

AccurateRip summary

Track  1  cannot be verified as accurate (confidence 10)  [3A6BD153], AccurateRip returned [FA4EEDC7]  (AR v2)
Track  2  cannot be verified as accurate (confidence 9)  [1F9B4BAE], AccurateRip returned [F3FA6298]  (AR v2)
Track  3  cannot be verified as accurate (confidence 9)  [7DDF8D02], AccurateRip returned [4C1D29C3]  (AR v2)
Track  4  cannot be verified as accurate (confidence 9)  [8F69194E], AccurateRip returned [85F28555]  (AR v2)
Track  5  cannot be verified as accurate (confidence 9)  [86895B40], AccurateRip returned [546100EB]  (AR v2)
Track  6  cannot be verified as accurate (confidence 9)  [69F0B35F], AccurateRip returned [C3F49F75]  (AR v2)
Track  7  cannot be verified as accurate (confidence 9)  [15E0F06E], AccurateRip returned [BA256DE6]  (AR v2)
Track  8  cannot be verified as accurate (confidence 9)  [2EFD8DD1], AccurateRip returned [72ADFC90]  (AR v2)
Track  9  cannot be verified as accurate (confidence 9)  [088B9180], AccurateRip returned [DFF3A68C]  (AR v2)

No tracks could be verified as accurate
You may have a different pressing from the one(s) in the database

End of status report

==== Log checksum AFFE2F9707C5F6DF97DBA7F7F2BDE0AE4B16E1B03BD22D013CE3EEE48B1FE39A ====
Код:
Код:
-----------------------

DON'T MODIFY THIS FILE

-----------------------

PERFORMER: auCDtect Task Manager, ver. 1.6.0 RC1 build 1.6.0.1
Copyright (c) 2008-2010 y-soft. All rights reserved
http:/y-soft.org

ANALYZER: auCDtect: CD records authenticity detector, version 0.8.2
Copyright (c) 2004 Oleg Berngardt. All rights reserved.
Copyright (c) 2004 Alexander Djourik. All rights reserved.

FILE: Blackfoot - Vertical Smiles.flac
  Size: 262089138 Hash: BB4B370079625E9A765137814E471A77 Accuracy: -m0
  Conclusion: CDDA 100%
  Signature: 7577370F27FFFCAD2D147751C39EA14EAC0C0325
Продолжительность - 00:35:27
FLAC (image+.cue)
#777Треклист:

01. Back On The Streets (3:16)
02. Saturday Night (3:54)
03. Closest Thing To Heaven (4:07)
04. Silent Type (4:43)
05. Reckless Boy (3:25)
06. Private Life (2:53)
07. Liar (4:40)
08. Steady Rockin' (3:50)
09. My Wild Romance (3:45)
10. Rock 'N' Roll Tonight (3:38)
Код:
Код:
Exact Audio Copy V0.99 prebeta 5 from 4. May 2009

Отчёт EAC об извлечении, выполненном 16. августа 2009, 12:02

Rick Medlocke and Blackfoot / Rick Medlocke and Blackfoot

Дисковод: _NEC    DV-5800E   Adapter: 4  ID: 1

Режим чтения                 : Достоверность
Использование точного потока : Да
Отключение кэша аудио        : Да
Использование указателей C2  : Нет

Коррекция смещения при чтении                     : 6
Способность читать области Lead-in и Lead-out     : Нет
Заполнение пропущенных сэмплов тишиной            : Да
Удаление блоков с тишиной в начале и конце        : Нет
При вычислениях CRC использовались нулевые сэмплы : Да
Интерфейс                                         : Встроенный Win32-интерфейс для Win NT/2000

Выходной формат : Monkey's Audio Lossless Encoder v3.99 DLL
Формат сэмплов  : Fast Lossless Compression

TOC извлечённого CD

     Трек |   Старт  | Длительность | Начальный сектор | Конечный сектор
    ---------------------------------------------------------------------
       1  |  0:00.00 |    3:16.32   |           0      |      14731
       2  |  3:16.32 |    3:53.40   |       14732      |      32246
       3  |  7:09.72 |    4:06.51   |       32247      |      50747
       4  | 11:16.48 |    4:43.37   |       50748      |      72009
       5  | 16:00.10 |    3:25.06   |       72010      |      87390
       6  | 19:25.16 |    2:53.02   |       87391      |     100367
       7  | 22:18.18 |    4:40.02   |      100368      |     121369
       8  | 26:58.20 |    3:50.28   |      121370      |     138647
       9  | 30:48.48 |    3:44.65   |      138648      |     155512
      10  | 34:33.38 |    3:37.68   |      155513      |     171855

Характеристики диапазона извлечения и сообщения об ошибках

Выбранный диапазон

     Имя файла C:\Users\Владими\Documents\Rick Medlocke and Blackfoot - Rick Medlocke and Blackfoot.ape

     Пиковый уровень 98.8 %
     Качество диапазона 100.0 %
     CRC копии 6043D9FA
     Копирование... OK

Ошибок не произошло

AccurateRip: сводка

Трек  1  нет в базе данных
Трек  2  нет в базе данных
Трек  3  нет в базе данных
Трек  4  нет в базе данных
Трек  5  нет в базе данных
Трек  6  нет в базе данных
Трек  7  нет в базе данных
Трек  8  нет в базе данных
Трек  9  нет в базе данных
Трек 10  нет в базе данных

Ни одного трека нет в базе AccurateRip

Конец отчёта
Код:
Код:
-----------------------

DON'T MODIFY THIS FILE

-----------------------

PERFORMER: auCDtect Task Manager, ver. 1.6.0 RC1 build 1.6.0.1
Copyright (c) 2008-2010 y-soft. All rights reserved
http:/y-soft.org

ANALYZER: auCDtect: CD records authenticity detector, version 0.8.2
Copyright (c) 2004 Oleg Berngardt. All rights reserved.
Copyright (c) 2004 Alexander Djourik. All rights reserved.

FILE: Rick Medlocke and Blackfoot - Rick Medlocke and Blackfoot.ape
  Size: 298085638 Hash: C13EAB95BD832195B130501F16A199AA Accuracy: -m0
  Conclusion: CDDA 100%
  Signature: 7799AA1C2C5557F855C10CB46A27D013B15DB19D
Продолжительность - 00:38:11
APE (image+.cue)
#777Треклист:

01. Doin' My Job (4:00)
02. The Stealer (3:22)
03. Sleazy World (3:58)
04. Not Gonna Cry Anymore (3:39)
05. Navarre (1:50)
06. Soldier Blue (4:09)
07. Runnin', Runnin' (4:37)
08. Chilled To D'Bone (4:18)
09. Guitar Slingers Song & Dance (5:29)
Код:
Код:
EAC extraction logfile from 9. December 2007, 13:29 for CD
Blackfoot / Medicine Man

Used drive  : HL-DT-STDVDRAM GSA-4163B   Adapter: 0  ID: 0
Read mode   : Secure with NO C2, accurate stream, disable cache
Combined read/write offset correction : 667
Overread into Lead-In and Lead-Out : No

Used output format : Internal WAV Routines
                     44.100 Hz; 16 Bit; Stereo

Other options      :
    Fill up missing offset samples with silence : Yes
    Delete leading and trailing silent blocks : No
    Installed external ASPI interface

Range status and errors
Selected range
     Filename F:\DISCOS COMPARTIDOS ESHOCK\Blackfoot - Medicine Man\CDImage.wav

     Peak level 99.9 %
     Range quality 99.9 %
     CRC FA9D0867
     Copy OK

No errors occured

End of status report
Код:
Код:
-----------------------

DON'T MODIFY THIS FILE

-----------------------

PERFORMER: auCDtect Task Manager, ver. 1.6.0 RC1 build 1.6.0.1
Copyright (c) 2008-2010 y-soft. All rights reserved
http:/y-soft.org

ANALYZER: auCDtect: CD records authenticity detector, version 0.8.2
Copyright (c) 2004 Oleg Berngardt. All rights reserved.
Copyright (c) 2004 Alexander Djourik. All rights reserved.

FILE: CDImage.wv
  Size: 220778928 Hash: 07D0F404DDE321AC332CF3823F10143F Accuracy: -m0
  Conclusion: CDDA 99%
  Signature: E605C078008E56151E1561615DF48BF76CB138EB
Продолжительность - 00:35:21
WavPack (image+.cue)
#777Треклист:

01. Sittin' On Top Of THe World (4:42)
02. Rainbow (4:32)
03. It's all over now (4:32)
04. Tupelo Honey (4:52)
05. The Road's My Middle Name (4:07)
06. Hang Time (4:24)
07. Tonight (3:42)
08. Nobody Rides For Free (3:58)
09. Bandelaro (3:40)
10. After The Reign (5:23)
Код:
Код:
EAC extraction logfile from 16. April 2006, 19:58 for CD
Blackfoot / After The Reign

Used drive  : SAMSUNG CD-R/RW SW-248F   Adapter: 0  ID: 0
Read mode   : Secure with NO C2, accurate stream, disable cache
Read offset correction : 97
Overread into Lead-In and Lead-Out : No

Used output format : Internal WAV Routines
                     44.100 Hz; 16 Bit; Stereo

Other options      :
    Fill up missing offset samples with silence : Yes
    Delete leading and trailing silent blocks : No
    Installed external ASPI interface

Range status and errors
Selected range
     Filename E:\Documents and Settings\rat.TR-G50KCK082Q78\My Documents\Blackfoot - After The Reign.wav

     Peak level 100.0 %
     Range quality 100.0 %
     CRC B7022612
     Copy OK

No errors occured

End of status report
Код:
Код:
-----------------------

DON'T MODIFY THIS FILE

-----------------------

PERFORMER: auCDtect Task Manager, ver. 1.6.0 RC1 build 1.6.0.1
Copyright (c) 2008-2010 y-soft. All rights reserved
http:/y-soft.org

ANALYZER: auCDtect: CD records authenticity detector, version 0.8.2
Copyright (c) 2004 Oleg Berngardt. All rights reserved.
Copyright (c) 2004 Alexander Djourik. All rights reserved.

FILE: Blackfoot - After The Reign.ape
  Size: 280512560 Hash: 8335893FE49395E120AA24252BAF6145 Accuracy: -m0
  Conclusion: CDDA 100%
  Signature: 50DB54611B69E6897DAB077E03C5FB6E38C13A4A
Продолжительность - 00:43:53
APE (image+.cue)
#777Треклист:

01. Rattlesnake Rock 'N' Roller (4:23)
02. Wishing Well (3:13)
03. Teenage Idol (4:38)
04. Train, Train (8:23)
05. Easy Livin' (2:28)
06. Highway Song (10:22)
07. On the Run (4:30)
08. Fly Away (3:47)
09. Livin' In The City (4:30)
Код:
Код:
Exact Audio Copy V1.0 beta 3 from 29. August 2011

EAC extraction logfile from 30. May 2014, 16:22

Blackfoot / Blackfoot Live

Used drive  : SAMSUNG DVD-ROM SD-616E   Adapter: 0  ID: 1

Read mode               : Secure
Utilize accurate stream : Yes
Defeat audio cache      : Yes
Make use of C2 pointers : No

Read offset correction                      : 12
Overread into Lead-In and Lead-Out          : No
Fill up missing offset samples with silence : Yes
Delete leading and trailing silent blocks   : No
Null samples used in CRC calculations       : Yes
Used interface                              : Native Win32 interface for Win NT & 2000
Gap handling                                : Appended to previous track

Used output format              : User Defined Encoder
Selected bitrate                : 1024 kBit/s
Quality                         : High
Add ID3 tag                     : No
Command line compressor         : C:\Program Files\Exact Audio Copy\FLAC\FLAC.EXE
Additional command line options : -8 -V -T "ARTIST=%artist%" -T "TITLE=%title%" -T "ALBUM=%albumtitle%" -T "DATE=%year%" -T "TRACKNUMBER=%tracknr%" -T "GENRE=%genre%" -T "PERFORMER=%albuminterpret%" -T "COMPOSER=%composer%" %haslyrics%--tag-from-file=LYRICS="%lyricsfile%"%haslyrics% -T "ALBUMARTIST=%albumartist%" -T "DISCNUMBER=%cdnumber%" -T "TOTALDISCS=%totalcds%" -T "TOTALTRACKS=%numtracks%" -T "COMMENT=%comment%" %source% -o %dest%

TOC of the extracted CD

     Track |   Start  |  Length  | Start sector | End sector
    ---------------------------------------------------------
        1  |  0:00.00 |  4:22.52 |         0    |    19701
        2  |  4:22.52 |  3:13.05 |     19702    |    34181
        3  |  7:35.57 |  4:38.30 |     34182    |    55061
        4  | 12:14.12 |  8:22.45 |     55062    |    92756
        5  | 20:36.57 |  2:27.38 |     92757    |   103819
        6  | 23:04.20 | 10:21.40 |    103820    |   150434
        7  | 33:25.60 |  4:30.20 |    150435    |   170704
        8  | 37:56.05 |  3:47.35 |    170705    |   187764
        9  | 41:43.40 |  4:30.22 |    187765    |   208036

Track  1

     Filename C:\MUSIC\Blackfoot - Blackfoot Live (1998) [FLAC]\01 Rattlesnake Rock 'N' Roller.wav

     Pre-gap length  0:00:02.00

     Peak level 96.7 %
     Extraction speed 2.0 X
     Track quality 100.0 %
     Test CRC 95948507
     Copy CRC 95948507
     Accurately ripped (confidence 5)  [CB1682D9]  (AR v2)
     Copy OK

Track  2

     Filename C:\MUSIC\Blackfoot - Blackfoot Live (1998) [FLAC]\02 Wishing Well.wav

     Peak level 96.7 %
     Extraction speed 2.1 X
     Track quality 100.0 %
     Test CRC 9C63DF40
     Copy CRC 9C63DF40
     Accurately ripped (confidence 5)  [A3E3529B]  (AR v2)
     Copy OK

Track  3

     Filename C:\MUSIC\Blackfoot - Blackfoot Live (1998) [FLAC]\03 Teenage Idol.wav

     Peak level 96.7 %
     Extraction speed 2.4 X
     Track quality 100.0 %
     Test CRC 6DA7B588
     Copy CRC 6DA7B588
     Accurately ripped (confidence 5)  [F19D80F9]  (AR v2)
     Copy OK

Track  4

     Filename C:\MUSIC\Blackfoot - Blackfoot Live (1998) [FLAC]\04 Train, Train.wav

     Peak level 96.7 %
     Extraction speed 2.8 X
     Track quality 100.0 %
     Test CRC 85216563
     Copy CRC 85216563
     Accurately ripped (confidence 5)  [02C2B5A2]  (AR v2)
     Copy OK

Track  5

     Filename C:\MUSIC\Blackfoot - Blackfoot Live (1998) [FLAC]\05 Easy Livin'.wav

     Pre-gap length  0:00:00.01

     Peak level 96.7 %
     Extraction speed 2.6 X
     Track quality 100.0 %
     Test CRC 33E4B24F
     Copy CRC 33E4B24F
     Accurately ripped (confidence 5)  [C860688D]  (AR v2)
     Copy OK

Track  6

     Filename C:\MUSIC\Blackfoot - Blackfoot Live (1998) [FLAC]\06 Highway Song.wav

     Peak level 96.7 %
     Extraction speed 3.3 X
     Track quality 100.0 %
     Test CRC 6760ECD4
     Copy CRC 6760ECD4
     Accurately ripped (confidence 5)  [020B0845]  (AR v2)
     Copy OK

Track  7

     Filename C:\MUSIC\Blackfoot - Blackfoot Live (1998) [FLAC]\07 On the Run.wav

     Pre-gap length  0:00:00.01

     Peak level 96.4 %
     Extraction speed 2.9 X
     Track quality 99.9 %
     Test CRC 212930E2
     Copy CRC 212930E2
     Accurately ripped (confidence 5)  [B562195C]  (AR v2)
     Copy OK

Track  8

     Filename C:\MUSIC\Blackfoot - Blackfoot Live (1998) [FLAC]\08 Fly Away.wav

     Peak level 95.9 %
     Extraction speed 3.4 X
     Track quality 100.0 %
     Test CRC 47A409C6
     Copy CRC 47A409C6
     Accurately ripped (confidence 5)  [BBEBA85F]  (AR v2)
     Copy OK

Track  9

     Filename C:\MUSIC\Blackfoot - Blackfoot Live (1998) [FLAC]\09 Livin' In The City.wav

     Pre-gap length  0:00:02.54

     Peak level 96.7 %
     Extraction speed 3.5 X
     Track quality 100.0 %
     Test CRC 059A8DCB
     Copy CRC 059A8DCB
     Accurately ripped (confidence 5)  [9FCE1D62]  (AR v2)
     Copy OK

All tracks accurately ripped

No errors occurred

End of status report

---- CUETools DB Plugin V2.1.3

[CTDB TOCID: QGsHYGml3hmze8buW7ENge1IG84-] found, Submit result: QGsHYGml3hmze8buW7ENge1IG84- has been confirmed
[690f27fe] (8/8) Accurately ripped

==== Log checksum A73E639DF0AF3B87271047CDA0F9032506B44A938FBEDC1C4DFF048056264C38 ====
Код:
Код:
-----------------------

DON'T MODIFY THIS FILE

-----------------------

PERFORMER: auCDtect Task Manager, ver. 1.6.0 RC1 build 1.6.0.1
Copyright (c) 2008-2010 y-soft. All rights reserved
http:/y-soft.org

ANALYZER: auCDtect: CD records authenticity detector, version 0.8.2
Copyright (c) 2004 Oleg Berngardt. All rights reserved.
Copyright (c) 2004 Alexander Djourik. All rights reserved.

FILE: 09 Livin' In The City.flac
  Size: 33833298 Hash: 3D279A7413A74EDD0F1D20D59A77E83A Accuracy: -m0
  Conclusion: CDDA 100%
  Signature: A573A1036C4442CB14149850FA17717D8ACE760E
FILE: 08 Fly Away.flac
  Size: 25644083 Hash: 7F820C60650BDDFA7347147C0CECC56B Accuracy: -m0
  Conclusion: CDDA 100%
  Signature: 24E7E1979B869875E81C111198930A4F47132087
FILE: 07 On the Run.flac
  Size: 32598034 Hash: 96D20E18E5F37F37405BD5504FF30C8A Accuracy: -m0
  Conclusion: CDDA 99%
  Signature: 6414DD77350C6CDC0CF5FAFD659BF845DDA7626A
FILE: 06 Highway Song.flac
  Size: 78746453 Hash: 85F8B7042032F76DA170CC96C820F351 Accuracy: -m0
  Conclusion: CDDA 99%
  Signature: D9F0C321DB558725F189D2166BAA7D5ACED87B12
FILE: 05 Easy Livin'.flac
  Size: 19735054 Hash: C2C1CB5015D93BD8F14AD53D6CA61227 Accuracy: -m0
  Conclusion: CDDA 100%
  Signature: 4EF57FC2D2BBD5CC03D9F920DF0AC2C9AE7A8601
FILE: 04 Train, Train.flac
  Size: 65380264 Hash: 8690FC18EE614E03701D6941FECD3DCD Accuracy: -m0
  Conclusion: CDDA 100%
  Signature: F9D572CFCC13ACA66A33D4F95BB18205F4144898
FILE: 03 Teenage Idol.flac
  Size: 36242629 Hash: DC0C3E5F5BBAADC4F6ABA6262D21A623 Accuracy: -m0
  Conclusion: CDDA 99%
  Signature: 2F15340FE7F8799561BA661FA82B8503280E9702
FILE: 02 Wishing Well.flac
  Size: 24908794 Hash: BAA390D082EC0CCFEFE0A0C7DB423ED3 Accuracy: -m0
  Conclusion: CDDA 100%
  Signature: C3758B7AAD53D7A8E3412F607B474715CAD53AAC
FILE: 01 Rattlesnake Rock 'N' Roller.flac
  Size: 33635450 Hash: FE9F1F19C733A63D0D874AAE9AF70F06 Accuracy: -m0
  Conclusion: CDDA 99%
  Signature: C478FB630B6A6831B765994C425F80C8EF184DBE
Продолжительность - 00:46:14
FLAC (tracks+.cue)
#777Треклист:

01. Highway Song (7:01)
02. Fly Away (2:59)
03. Wishing Well (3:12)
04. Gimme, Gimme, Gimme (4:05)
05. Fox Chase (4:20)
06. Too Hard To Handle (4:05)
07. Lerft Turn On A Red Light (4:37)
08. Rattlesnake Rock 'N' Roller (4:03)
09. Diary Of A Working Man (5:37)
10. Train, Train (3:34)
Код:
Код:
Exact Audio Copy V0.99 prebeta 5 from 4. May 2009

EAC extraction logfile from 24. June 2009, 1:49

Blackfoot / Greatest Hits

Used drive  : ATAPI   iHAP322   8   Adapter: 0  ID: 1

Read mode : Burst

Read offset correction                      : 6
Overread into Lead-In and Lead-Out          : No
Fill up missing offset samples with silence : Yes
Delete leading and trailing silent blocks   : No
Null samples used in CRC calculations       : Yes
Used interface                              : Native Win32 interface for Win NT & 2000
Gap handling                                : Appended to previous track

Used output format              : User Defined Encoder
Selected bitrate                : 128 kBit/s
Quality                         : High
Add ID3 tag                     : No
Command line compressor         : C:\Program Files\Exact Audio Copy\Flac\flac.exe
Additional command line options : -V -8 -T "artist=%a" -T "title=%t" -T "album=%g" -T "date=%y" -T "tracknumber=%n" -T "genre=%m" %s

TOC of the extracted CD

     Track |   Start  |  Length  | Start sector | End sector
    ---------------------------------------------------------
        1  |  0:00.32 |  7:01.08 |        32    |    31614
        2  |  7:01.40 |  2:58.55 |     31615    |    45019
        3  | 10:00.20 |  3:12.17 |     45020    |    59436
        4  | 13:12.37 |  4:05.18 |     59437    |    77829
        5  | 17:17.55 |  4:20.37 |     77830    |    97366
        6  | 21:38.17 |  4:04.70 |     97367    |   115736
        7  | 25:43.12 |  4:37.30 |    115737    |   136541
        8  | 30:20.42 |  4:03.08 |    136542    |   154774
        9  | 34:23.50 |  5:36.60 |    154775    |   180034
       10  | 40:00.35 |  3:34.37 |    180035    |   196121

Track  1

     Filename C:\Users\Don\Desktop\Highway Song.wav

     Pre-gap length  0:00:02.42

     Peak level 99.9 %
     Test CRC 9F22DE57
     Copy CRC 9F22DE57
     Accurately ripped (confidence 8)  [B0459491]
     Copy OK

Track  2

     Filename C:\Users\Don\Desktop\Fly Away.wav

     Pre-gap length  0:00:00.06

     Peak level 97.2 %
     Test CRC 0DDDC666
     Copy CRC 0DDDC666
     Accurately ripped (confidence 8)  [81540E05]
     Copy OK

Track  3

     Filename C:\Users\Don\Desktop\Wishing Well.wav

     Pre-gap length  0:00:00.97

     Peak level 97.2 %
     Test CRC E3E1EB4A
     Copy CRC E3E1EB4A
     Accurately ripped (confidence 8)  [B44E1A1E]
     Copy OK

Track  4

     Filename C:\Users\Don\Desktop\Gimme, Gimme, Gimme.wav

     Pre-gap length  0:00:00.60

     Peak level 97.2 %
     Test CRC 68AD2CB7
     Copy CRC 68AD2CB7
     Accurately ripped (confidence 7)  [98491204]
     Copy OK

Track  5

     Filename C:\Users\Don\Desktop\Fox Chase.wav

     Pre-gap length  0:00:01.44

     Peak level 97.2 %
     Test CRC 78B5DC48
     Copy CRC 78B5DC48
     Accurately ripped (confidence 7)  [ADE66B30]
     Copy OK

Track  6

     Filename C:\Users\Don\Desktop\To Hard To Handle.wav

     Pre-gap length  0:00:00.33

     Peak level 97.2 %
     Test CRC 35B5F828
     Copy CRC 35B5F828
     Accurately ripped (confidence 8)  [151FDDB8]
     Copy OK

Track  7

     Filename C:\Users\Don\Desktop\Left Turn On A Red Light.wav

     Pre-gap length  0:00:01.69

     Peak level 97.2 %
     Test CRC 28990306
     Copy CRC 28990306
     Accurately ripped (confidence 8)  [E06ED1C1]
     Copy OK

Track  8

     Filename C:\Users\Don\Desktop\Rattlesnake Rock 'N' Roller.wav

     Pre-gap length  0:00:01.13

     Peak level 97.2 %
     Test CRC B90EEC6D
     Copy CRC B90EEC6D
     Accurately ripped (confidence 7)  [9D6BD032]
     Copy OK

Track  9

     Filename C:\Users\Don\Desktop\Diary Of A Working Man.wav

     Pre-gap length  0:00:01.46

     Peak level 97.2 %
     Test CRC 5CC55C0A
     Copy CRC 5CC55C0A
     Accurately ripped (confidence 7)  [FD0CEEFD]
     Copy OK

Track 10

     Filename C:\Users\Don\Desktop\Train, Train.wav

     Pre-gap length  0:00:01.40

     Peak level 97.2 %
     Test CRC 8A739B89
     Copy CRC 8A739B89
     Accurately ripped (confidence 6)  [FA915FE7]
     Copy OK

All tracks accurately ripped

No errors occurred

End of status report
Код:
Код:
-----------------------

DON'T MODIFY THIS FILE

-----------------------

PERFORMER: auCDtect Task Manager, ver. 1.6.0 RC1 build 1.6.0.1
Copyright (c) 2008-2010 y-soft. All rights reserved
http:/y-soft.org

ANALYZER: auCDtect: CD records authenticity detector, version 0.8.2
Copyright (c) 2004 Oleg Berngardt. All rights reserved.
Copyright (c) 2004 Alexander Djourik. All rights reserved.

FILE: Wishing Well.flac
  Size: 21357267 Hash: 09EC15F1A28A372FF024EAD46F742D66 Accuracy: -m0
  Conclusion: CDDA 100%
  Signature: 13990F1F1A9EEB865F3007994C110309D625343A
FILE: Train, Train.flac
  Size: 23805767 Hash: 199ED317131C7774589A62065BBC8EA1 Accuracy: -m0
  Conclusion: CDDA 100%
  Signature: 5998621ABD6C0B3EA5B9216AF5D1AB3250F3B5B4
FILE: To Hard To Handle.flac
  Size: 30114575 Hash: AB1B320ACA1C6A27B65395FD122D3D02 Accuracy: -m0
  Conclusion: CDDA 100%
  Signature: F9F61C74BAB63F4B9CA8F2C44425AD96CC942EE4
FILE: Rattlesnake Rock 'N' Roller.flac
  Size: 26938812 Hash: 49FBAFA86537E41C2EDDBBA1A7985553 Accuracy: -m0
  Conclusion: CDDA 100%
  Signature: 26BA862D053B944D55E1E2930F7F5F6EE3569788
FILE: Left Turn On A Red Light.flac
  Size: 31208589 Hash: AE03ABE1E819E0920B0D64532602CDC9 Accuracy: -m0
  Conclusion: CDDA 100%
  Signature: E659C658467074EF71F6ADD6DC3E8F2B432CEDEA
FILE: Highway Song.flac
  Size: 46663415 Hash: EA35CFA31E0AF016F49FDCE7BDD61C58 Accuracy: -m0
  Conclusion: CDDA 100%
  Signature: 352997139324DB12F856E6903C2C457F200CC484
FILE: Gimme, Gimme, Gimme.flac
  Size: 30104693 Hash: 0F168AF82BEA341D44FDD3EBE2B6435E Accuracy: -m0
  Conclusion: CDDA 100%
  Signature: A42F5248A103910541C01B5BF14971A5160A2A2F
FILE: Fox Chase.flac
  Size: 29694694 Hash: F966AEA38206CD63E9258E66AD13228A Accuracy: -m0
  Conclusion: CDDA 100%
  Signature: FB2F8C6C65F7A2B92C981D6B32792B28DAA4C3F2
FILE: Fly Away.flac
  Size: 20182046 Hash: A5F22880D25664DB97FD91141C57D087 Accuracy: -m0
  Conclusion: CDDA 100%
  Signature: C2E97E6E3E2BE004C57F09D748328B1580C49841
FILE: Diary Of A Working Man.flac
  Size: 35209487 Hash: 5516A3A6E6F47D1F0623935D1DA08D1F Accuracy: -m0
  Conclusion: CDDA 100%
  Signature: 81DC63091389B6C20794E73C31B65A9375E382AB
Продолжительность - 00:43:35
FLAC (tracks+.cue)
http://nnm-club.me/forum/viewtopic.php?t=475679
Код:
 [b]Возможно вытеснение рипом с правильными настройками без согласия релизера.[/b]
 [b][u][i]Bigbeer[/b][/i][/u]
#777Треклист:

01. Railroad Man (3:56)
02. Wishing Well (4:15)
03. I Gotta A Line On You (5:45)
04. Blues Instrumental (2:46)
05. Baby Blue (3:26)
06. Sunshine Again (8:01)
07. Every Man Should Know (5:23)
08. Fox Chase (3:29)
09. Left Turn On A Red Light (5:57)
10. On The Run (5:23)
11. Rollin' And Tumblin' (3:06)
12. Fly Away (3:47)
13. Train Train (4:47)
14. Highway Song (10:33)
15. Good Morning (5:45)
Код:
Код:
Exact Audio Copy V0.99 prebeta 4 from 23. January 2008

EAC extraction logfile from 3. August 2008, 10:53

Blackfoot / Train Train

Used drive  : TSSTcorpCD/DVDW SH-S182M   Adapter: 4  ID: 0

Read mode               : Secure
Utilize accurate stream : Yes
Defeat audio cache      : Yes
Make use of C2 pointers : No

Read offset correction                      : 6
Overread into Lead-In and Lead-Out          : No
Fill up missing offset samples with silence : Yes
Delete leading and trailing silent blocks   : No
Null samples used in CRC calculations       : Yes
Used interface                              : Installed external ASPI interface

Used output format : Internal WAV Routines
Sample format      : 44.100 Hz; 16 Bit; Stereo

TOC of the extracted CD

     Track |   Start  |  Length  | Start sector | End sector
    ---------------------------------------------------------
        1  |  0:00.00 |  3:55.53 |         0    |    17677
        2  |  3:55.53 |  4:14.55 |     17678    |    36782
        3  |  8:10.33 |  5:44.71 |     36783    |    62653
        4  | 13:55.29 |  2:45.46 |     62654    |    75074
        5  | 16:41.00 |  3:25.62 |     75075    |    90511
        6  | 20:06.62 |  8:01.08 |     90512    |   126594
        7  | 28:07.70 |  5:22.46 |    126595    |   150790
        8  | 33:30.41 |  3:29.24 |    150791    |   166489
        9  | 36:59.65 |  5:56.62 |    166490    |   193251
       10  | 42:56.52 |  5:22.47 |    193252    |   217448
       11  | 48:19.24 |  3:06.34 |    217449    |   231432
       12  | 51:25.58 |  3:47.12 |    231433    |   248469
       13  | 55:12.70 |  4:47.13 |    248470    |   270007
       14  | 60:00.08 | 10:32.72 |    270008    |   317479
       15  | 70:33.05 |  5:45.26 |    317480    |   343380

Range status and errors

Selected range

     Filename F:\Release\Blackfoot\Blackfoot - Train Train.wav

     Peak level 100.0 %
     Range quality 100.0 %
     Test CRC 2FE826B3
     Copy CRC 2FE826B3
     Copy OK

No errors occurred

AccurateRip summary

Track  1  not present in database
Track  2  not present in database
Track  3  not present in database
Track  4  not present in database
Track  5  not present in database
Track  6  not present in database
Track  7  not present in database
Track  8  not present in database
Track  9  not present in database
Track 10  not present in database
Track 11  not present in database
Track 12  not present in database
Track 13  not present in database
Track 14  not present in database
Track 15  not present in database

None of the tracks are present in the AccurateRip database

End of status report
Код:
Код:
-----------------------

DON'T MODIFY THIS FILE

-----------------------

PERFORMER: auCDtect Task Manager, ver. 1.6.0 RC1 build 1.6.0.1
Copyright (c) 2008-2010 y-soft. All rights reserved
http:/y-soft.org

ANALYZER: auCDtect: CD records authenticity detector, version 0.8.2
Copyright (c) 2004 Oleg Berngardt. All rights reserved.
Copyright (c) 2004 Alexander Djourik. All rights reserved.

FILE: Blackfoot - Train Train.wv
  Size: 593901308 Hash: 2811518AECE94365CF56C4D471AB767F Accuracy: -m0
  Conclusion: CDDA 100%
  Signature: C749DAD1472FD9039EEDC7D7A3DAA1F2661333E2
Продолжительность - 01:16:18
WAVPack (image+.cue)

Благодарность за рипы: souldoctor, shakybaby, ALLexxess, turnblack, javirunner, rat24, Grog13, Alano89, wcmy1






Джексонвилльская команда "Blackfoot", так же как и ее земляки "Lynyrd Skynyrd", начинала с исполнения так называемого "южного рока", однако познала успех лишь когда утяжелила свое звучание и заиграла в духе "AC/DC" и "Scorpions". Коллектив образовался в 1970 году, а в стартовый состав вошли Rick Медлок (р. 17 февраля 1950; вокал, гитара), Charlie Hargrett (гитара), Greg Walker (бас, вокал) и Jakson Spires (р. 12 апреля 1951; у. 16 марта 2005; ударные, вокал). Несомненным лидером группы являлся Рик, чей отец Шорти Медлок был известным во Флориде музыкантом, исполнителем блюграссов.
Около пяти лет "Blackfoot" зарабатывали на жизнь концертами, изредка меняя участников и приостанавливая деятельность. Наконец в 1975 году музыкантам удалось заключить контракт с "Island Records", где вышел их дебютный альбом. "No Reservations" не мог похвастаться хорошей раскупаемостью, хотя на концертном поприще группа имела неплохой успех.
Сменив лейбл на "Epic Records", коллектив выдал еще один альбом, спродюсированный, так же как и его предшественник, Джимми Джонсоном. Однако выпускающая фирма не стала заботиться о раскрутке "Flyin' High", и тираж диска также остался невелик. Успех пришел к "Blackfoot", когда команда перебазировалась под крышу "Atco Records". Вышедший в 1979-м диск "Strikes" имел более жесткий саунд по сравнению с предыдущими работами, а также содержал пару хитов, "Highway Song" и "Train, Train", причем последний принадлежал перу Медлока-старшего. Пластинка стала платиновой, чему в дополнительной мере способствовали продолжительные гастроли. Две следующих работы, "Tomcattin'" и "Maruader" (содержавшая хит "Fly Away"), тоже были успешными и достигли соответственно золотой и платиновой отметки.
Для закрепления популярности "Blackfoot" в 1982 году выпустили концертник "Highway Song". Между тем, лейбл начал давить на музыкантов, заставляя их коммерциализировать звучание, и те вынуждены были пойти на уступки. С участием бывшего "хипа" Кена Хенсли в середине 80-х группа выпустила пару пластинок, сделанных в стиле AOR, после чего проект распался.
В 1987-м Рик Медлок при участии Нила Касала (гитара), Рикки Мэйера (бас) и Ганнера Росса стал работать под вывеской "Rick Medlocke And Blackfoot". Новый состав не отличался стабильностью и уже после выпуска первой пластинки начал флуктуировать. Команда, ведомая Медлоком, выдала еще пару дисков, после чего ее деятельность пошла на спад. Рик все чаще отвлекался на работу в "Lynyrd Skynyrd" и, в конце концов, проект впал в кому. Реанимировать имя "Blackfoot" взялись в 2004 году старички Greg Walker, Jakson Spires и Charlie Hargrett. Поскольку Медлок не смог участвовать в реюнионе, они взяли к себе в компанию фронтмена "Axe" Бобби Барта.
Группа успела засветиться на фестивалях "Sweden Rock" и "Arrow Rock", но в 2005-м ей пришлось перенести тяжелую утрату – скончался Спайрс. Впрочем, барабанщик завещал продолжать играть и без него, и коллеги выполнили его волю. Место за ударными занял Кристоф Ульман, а чуть позже его сменил Майкл Солларс. В 2007 году группа подтвердила свою боеспособность выпуском концертного DVD.
Состав
Bobby Barth - вокал, гитара
Charlie Hargrett - гитара
Greg Walker - бас
Michael Sollars - ударные

Дискография
No Reservations - 1975
Flyin' High - 1976
Strikes - 1979
Tomcattin' - 1980
Maruader - 1981
Siogo - 1983
Vertical Smiles - 1984
Rick Medlocke And Blackfoot - 1987
Medicine Man - 1990
After The Reign - 1994

Live albums
Highway Song Live (1982)
Live on the King Biscuit Flower Hour (1998)
Train Train: Southern Rock's Best - Live (2007)
On the Run - Live (2004)
Fly Away - Live (2011)

Compilations
Rattlesnake Rock N' Roll: The Best of Blackfoot (1994)
Greatest Hits (2002)
загрузка...
Правила, инструкции, FAQ!!!
Торрент  Добавлен [05 авг 2016, 23:36] Скачать торрент Магнет ссылка
Скачать торрент
[ Размер 25.3 КБ / Просмотров 51 ]

Статус
Обновлён Bionik (05 авг 2016, 23:38)
 
Размер  4.27 ГБ
Приватный: Нет (DHT включён)
.torrent скачан  5
Как залить торрент? | Как скачать Torrent? | Ошибка в торренте? Качайте магнет  


     Отправить личное сообщение
   

СообщениеДобавлено: 05 авг 2016, 23:37 

Ответить с цитатой 

Зарегистрированные пользователи
Зарегистрированные пользователи

Стаж: 1 год 9 месяцев 17 дней
Раздал: 8.77 ГБ
Скачал: 0 байт
Ратио: Seed.
Торренты: 0
Pleese Seeed


Профиль     Отправить личное сообщение
   

СообщениеДобавлено: 05 авг 2016, 23:40 

Ответить с цитатой 

Администратор
Администратор
Аватара пользователя

Стаж: 5 лет 7 месяцев 5 дней
Раздал: 287.94 ГБ
Скачал: 158.38 ГБ
Ратио: 1.818
Торренты: 0
Обновил торрент файл, скачайте заново

_________________
Не скачивается раздача? напишите об этом в теме!


Профиль     Отправить личное сообщение
   
Страница 1 из 1
Показать сообщения за:  Поле сортировки  
Начать новую тему Ответить на тему

   Похожие торренты   Автор   Ответы   Просмотры   Последнее сообщение 
В этой теме нет новых непрочитанных сообщений. Скачать торрент Проверен (Southern rock) Blackfoot - Train Train: Southern Rock's Best - Live - 2007, WAVPack (image+.cue), lossless

в форуме Classic Rock & Hard Rock, Размер: 579.85 МБ, Здоровье: 100%

Anonymous

0
3|0

35
0

03 сен 2016, 17:28

Anonymous Перейти к последнему сообщению

В этой теме нет новых непрочитанных сообщений. Скачать торрент Проверен (Southern Rock | Hard Rock) Blackfoot - Дискография (1975 - 2009), 37 Albums, MP3, 128-320 kbps

в форуме Classic Rock & Hard Rock, Размер: 3.48 ГБ, Здоровье: 100%

Anonymous

0
48|17

125
4

14 ноя 2016, 22:29

Anonymous Перейти к последнему сообщению

В этой теме нет новых непрочитанных сообщений. Скачать торрент Проверен (Southern Rock, Hard Rock) [CD] Blackfoot - Southern Native - 2016, FLAC (image+.cue), lossless

в форуме Classic Rock & Hard Rock, Размер: 295.73 МБ, Здоровье: 100%

Anonymous

0
22|7

44
3

05 сен 2016, 22:59

Anonymous Перейти к последнему сообщению

В этой теме нет новых непрочитанных сообщений. Скачать торрент Проверен (Southern Rock, Hard Rock) Blackfoot - Southern Native - 2016, MP3, 320 kbps

в форуме Classic Rock & Hard Rock, Размер: 94.03 МБ, Здоровье: 100%

Anonymous

0
26|8

81
1

14 ноя 2016, 22:02

Anonymous Перейти к последнему сообщению

В этой теме нет новых непрочитанных сообщений. Скачать торрент Проверен (Southern/hard/classic rock) Blackfoot - After the Reign - 1994, APE (image+.cue), lossless

в форуме Classic Rock & Hard Rock, Размер: 269.64 МБ, Здоровье: 100%

Anonymous

0
7|1

26
1

05 сен 2016, 21:05

Anonymous Перейти к последнему сообщению



Сейчас этот форум просматривают: нет зарегистрированных пользователей и гости: 0


Вы не можете начинать темы
Вы не можете отвечать на сообщения
Вы не можете редактировать свои сообщения
Вы не можете удалять свои сообщения
Вы не можете добавлять вложения

Перейти:  
Ресурс не предоставляет электронные версии произведений, а занимается лишь коллекционированием и каталогизацией ссылок, присылаемых и публикуемых на форуме нашими читателями. Если вы являетесь правообладателем какого-либо представленного материала и не желаете чтобы ссылка на него находилась в нашем каталоге, свяжитесь с нами и мы незамедлительно удалим её. Файлы для обмена на трекере предоставлены пользователями сайта, и администрация не несёт ответственности за их содержание. Просьба не заливать файлы, защищенные авторскими правами, а также файлы нелегального содержания!
cron