На всех торрентах на трекере установлена скидка на скачивание в размере 100 процентов(а).
 Возможность скачивания торрента НЕ зависит от ограничений при низком ратио, низком аплоаде, требуемом ратио или требуемом аплоаде.


Начать новую тему Ответить на тему
Статистика раздачи
Размер: 14.75 ГБ | Добавлен: 14 мар 2013, 22:29 | Скачали: 0
Сидеров: 0  [0 байт/сек]    Личеров: 0  [0 байт/сек]
Пред. тема | След. тема 

Автор
Сообщение

СообщениеДобавлено: 14 мар 2013, 22:29 

Ответить с цитатой 

Бездна / The Deep



Название: Бездна
Оригинальное название: The Deep
Год выхода: 1977
Жанр: Ужасы, триллер, детектив, приключения



Режиссер: Питер Йетс

В фильме снимались: Роберт Шоу, Жаклин Биссет, Ник Нолти, Луис Госсет мл., Эли Уоллах, Дик Энтони Уильямс, Эрл Мэйнард, Боб Майнор, Тедди Такер, Роберт Тессьер, Ли МакКлейн



Вкратце:
Супруги Гейл и Дэвид проводят отпуск на экзотическом бермудском острове. Во время подводной охоты им достается роскошная и опасная добыча: они находят затонувший испанский корабль, который набит несметными сокровищами. Искатели приключений и не подозревают, с чем им предстоит столкнуться в погоне за кладом. В конце концов, они оказываются на краю бездны, где любое неверное движение может стоить жизни.







Страна: США
Студия: Calambia EMI Presentation, Casablanca Filmworks Production
Продолжительность: 02:04:30
Перевод: Дублированный, профессиональный многоголосый, авторский одноголосый



Формат: mkv
Качество: BDRip 1080p
Видео: MPEG-4 AVC, 14.2 Мбит/с, 1920x800, 23.976 кадр/с
Аудио 1: Русский (АС3, 2 ch, 192 Кбит/с) - профессиональный многоголосый (R5)
Аудио 2: Русский (АС3, 2 ch, 192 Кбит/с) - советский дубляж
Аудио 3: Русский (АС3, 6 ch, 640 Кбит/с) - авторский одноголосый (Юрий Живов)
Аудио 4: Русский (АС3, 6 ch, 640 Кбит/с) - авторский одноголосый (Василий Горчаков)
Аудио 5: Русский (АС3, 6 ch, 448 Кбит/с) - авторский одноголосый (Андрей Гаврилов)
Аудио 6: Английский (АС3, 6 ch, 640 Кбит/с) - оригинал
Субтитры: Русские, английские, немецкие, французские, финские, венгерские, польские







Общее
Полное имя : E:VideoThe.Deep.1977.1080p.BluRay.AC3.x264-HDC.5xRus.mkv
Формат : Matroska
Версия формата : Version 2
Размер файла : 14,7 Гбайт
Продолжительность : 2 ч. 4 м.
Общий поток : 17,0 Мбит/сек
Название фильма : The Deep 1977
Дата кодирования : UTC 2013-03-14 15:33:11
Программа кодирования : mkvmerge v6.1.0 ('Old Devil') built on Mar 2 2013 14:32:37
Библиотека кодирования : libebml v1.3.0 + libmatroska v1.4.0

Видео
Идентификатор : 1
Формат : AVC
Формат/Информация : Advanced Video Codec
Профиль формата : High@L4.1
Параметр CABAC формата : Да
Параметр ReFrames формата : 5 кадров
Идентификатор кодека : V_MPEG4/ISO/AVC
Продолжительность : 2 ч. 4 м.
Битрейт : 14,2 Мбит/сек
Ширина : 1920 пикселей
Высота : 800 пикселей
Соотношение сторон : 2,40:1
Режим частоты кадров : Постоянный
Частота кадров : 23,976 кадра/сек
Цветовое пространство : YUV
Субдискретизация насыщенности : 4:2:0
Битовая глубина : 8 бит
Тип развёртки : Прогрессивная
Бит/(Пиксели*Кадры) : 0.386
Размер потока : 12,1 Гбайт (82%)
Библиотека кодирования : x264 core 67 r1173M f6d3166
Настройки программы : cabac=1 / ref=5 / deblock=1:-3:-4 / analyse=0x3:0x113 / me=esa / subme=9 / psy_rd=1.3:0.0 / mixed_ref=1 / me_range=24 / chroma_me=1 / trellis=2 / 8x8dct=1 / cqm=0 / deadzone=21,11 / chroma_qp_offset=-2 / threads=12 / nr=0 / decimate=0 / mbaff=0 / bframes=6 / b_pyramid=1 / b_adapt=2 / b_bias=0 / direct=3 / wpredb=1 / keyint=250 / keyint_min=25 / scenecut=40 / rc=2pass / bitrate=14200 / ratetol=1.0 / qcomp=0.70 / qpmin=10 / qpmax=51 / qpstep=4 / cplxblur=20.0 / qblur=0.5 / vbv_maxrate=50000 / vbv_bufsize=50000 / ip_ratio=1.30 / pb_ratio=1.20 / aq=2:1.00
Язык : English
Default : Да
Forced : Нет

Аудио #1
Идентификатор : 2
Формат : AC-3
Формат/Информация : Audio Coding 3
Профиль формата : Dolby Digital
Расширение режима : CM (complete main)
Параметр Endianness формата : Big
Идентификатор кодека : A_AC3
Продолжительность : 2 ч. 4 м.
Вид битрейта : Постоянный
Битрейт : 192 Кбит/сек
Каналы : 2 канала
Расположение каналов : Front: L R
Частота : 48,0 КГц
Битовая глубина : 16 бит
Метод сжатия : С потерями
Размер потока : 171 Мбайт (1%)
Заголовок : Russian (MVO - R5)
Язык : Russian
Default : Да
Forced : Нет

Аудио #2
Идентификатор : 3
Формат : AC-3
Формат/Информация : Audio Coding 3
Профиль формата : Dolby Digital
Расширение режима : CM (complete main)
Параметр Endianness формата : Big
Идентификатор кодека : A_AC3
Продолжительность : 2 ч. 4 м.
Вид битрейта : Постоянный
Битрейт : 192 Кбит/сек
Каналы : 2 канала
Расположение каналов : Front: L R
Частота : 48,0 КГц
Битовая глубина : 16 бит
Метод сжатия : С потерями
Размер потока : 171 Мбайт (1%)
Заголовок : Russian (DUB)
Язык : Russian
Default : Нет
Forced : Нет

Аудио #3
Идентификатор : 4
Формат : AC-3
Формат/Информация : Audio Coding 3
Расширение режима : CM (complete main)
Параметр Endianness формата : Big
Идентификатор кодека : A_AC3
Продолжительность : 2 ч. 4 м.
Вид битрейта : Постоянный
Битрейт : 640 Кбит/сек
Каналы : 6 каналов
Расположение каналов : Front: L C R, Side: L R, LFE
Частота : 48,0 КГц
Битовая глубина : 16 бит
Метод сжатия : С потерями
Размер потока : 570 Мбайт (4%)
Заголовок : Russian (AVO - Yu.Jivov)
Язык : Russian
Default : Нет
Forced : Нет

Аудио #4
Идентификатор : 5
Формат : AC-3
Формат/Информация : Audio Coding 3
Расширение режима : CM (complete main)
Параметр Endianness формата : Big
Идентификатор кодека : A_AC3
Продолжительность : 2 ч. 4 м.
Вид битрейта : Постоянный
Битрейт : 640 Кбит/сек
Каналы : 6 каналов
Расположение каналов : Front: L C R, Side: L R, LFE
Частота : 48,0 КГц
Битовая глубина : 16 бит
Метод сжатия : С потерями
Размер потока : 570 Мбайт (4%)
Заголовок : Russian (AVO - V.Gorchakov)
Язык : Russian
Default : Нет
Forced : Нет

Аудио #5
Идентификатор : 6
Формат : AC-3
Формат/Информация : Audio Coding 3
Расширение режима : CM (complete main)
Параметр Endianness формата : Big
Идентификатор кодека : A_AC3
Продолжительность : 2 ч. 4 м.
Вид битрейта : Постоянный
Битрейт : 448 Кбит/сек
Каналы : 6 каналов
Расположение каналов : Front: L C R, Side: L R, LFE
Частота : 48,0 КГц
Битовая глубина : 16 бит
Метод сжатия : С потерями
Размер потока : 399 Мбайт (3%)
Заголовок : Russian (AVO - A.Gavrilov)
Язык : Russian
Default : Нет
Forced : Нет

Аудио #6
Идентификатор : 7
Формат : AC-3
Формат/Информация : Audio Coding 3
Расширение режима : CM (complete main)
Параметр Endianness формата : Big
Идентификатор кодека : A_AC3
Продолжительность : 2 ч. 4 м.
Вид битрейта : Постоянный
Битрейт : 640 Кбит/сек
Каналы : 6 каналов
Расположение каналов : Front: L C R, Side: L R, LFE
Частота : 48,0 КГц
Битовая глубина : 16 бит
Метод сжатия : С потерями
Размер потока : 570 Мбайт (4%)
Заголовок : English AC3 5.1 @ 640 kbps (core of TrueHD)
Язык : English
Default : Нет
Forced : Нет

Текст #1
Идентификатор : 8
Формат : UTF-8
Идентификатор кодека : S_TEXT/UTF8
Идентификатор кодека/Информация : UTF-8 Plain Text
Заголовок : Russian
Язык : Russian
Default : Нет
Forced : Нет

Текст #2
Идентификатор : 9
Формат : UTF-8
Идентификатор кодека : S_TEXT/UTF8
Идентификатор кодека/Информация : UTF-8 Plain Text
Заголовок : English
Язык : English
Default : Нет
Forced : Нет

Текст #3
Идентификатор : 10
Формат : UTF-8
Идентификатор кодека : S_TEXT/UTF8
Идентификатор кодека/Информация : UTF-8 Plain Text
Заголовок : German
Язык : German
Default : Нет
Forced : Нет

Текст #4
Идентификатор : 11
Формат : UTF-8
Идентификатор кодека : S_TEXT/UTF8
Идентификатор кодека/Информация : UTF-8 Plain Text
Заголовок : French
Язык : French
Default : Нет
Forced : Нет

Текст #5
Идентификатор : 12
Формат : UTF-8
Идентификатор кодека : S_TEXT/UTF8
Идентификатор кодека/Информация : UTF-8 Plain Text
Заголовок : Finnish
Язык : Finnish
Default : Нет
Forced : Нет

Текст #6
Идентификатор : 13
Формат : UTF-8
Идентификатор кодека : S_TEXT/UTF8
Идентификатор кодека/Информация : UTF-8 Plain Text
Заголовок : Hungarian
Язык : Hungarian
Default : Нет
Forced : Нет

Текст #7
Идентификатор : 14
Формат : UTF-8
Идентификатор кодека : S_TEXT/UTF8
Идентификатор кодека/Информация : UTF-8 Plain Text
Заголовок : Polish
Язык : Polish
Default : Нет
Forced : Нет

Меню
00:00:00.000 : :00:00:00.000
00:08:33.555 : :00:08:33.555
00:16:56.182 : :00:16:56.182
00:22:52.079 : :00:22:52.079
00:29:13.669 : :00:29:13.669
00:40:16.539 : :00:40:16.539
00:47:18.294 : :00:47:18.294
00:55:24.029 : :00:55:24.029
01:12:44.819 : :01:12:44.819
01:19:36.897 : :01:19:36.897
01:26:58.922 : :01:26:58.922
01:34:20.905 : :01:34:20.905
01:41:07.019 : :01:41:07.019
01:46:58.996 : :01:46:58.996
01:54:33.992 : :01:54:33.992
02:00:27.470 : :02:00:27.470
загрузка...
Правила, инструкции, FAQ!!!
Торрент  Добавлен [14 мар 2013, 22:29] Скачать торрент Магнет ссылка
Скачать торрент
[ Размер 37.41 КБ / Просмотров 12 ]

Статус  
 
Размер  14.75 ГБ
Приватный: Нет (DHT включён)
.torrent скачан  0
Как залить торрент? | Как скачать Torrent? | Как смотреть и слушать онлайн?  


     Отправить личное сообщение
   
Страница 1 из 1
Показать сообщения за:  Поле сортировки  
Начать новую тему Ответить на тему

   Похожие торренты   Автор   Ответы   Просмотры   Последнее сообщение 
В этой теме нет новых непрочитанных сообщений. Скачать торрент Проверен [iPhone] Риддик - Трилогия / Riddick Trilogy (Дэвид Туи, Питер Чунг) [ужасы, фантастика, триллер, приключения,HDRip,BDRip, DVDRip]

в форуме Фильмы для iPod, iPhone, iPad, Размер: 1.38 ГБ, Здоровье: 100%

Anonymous

0
298|51

147
3

14 май 2015, 00:02

Anonymous Перейти к последнему сообщению

В этой теме нет новых непрочитанных сообщений. Скачать торрент Проверен [iPhone] Оно / It (Томми Ли Уоллес) [1990 г., ужасы, триллер, фэнтези, комедия, драма, приключения, детектив, DVDRip]

в форуме Фильмы для iPod, iPhone, iPad, Размер: 977.23 МБ, Здоровье: 100%

Гость

0
4|2

85
2

18 май 2015, 10:38

Гость Перейти к последнему сообщению

В этой теме нет новых непрочитанных сообщений. Скачать торрент Проверен Шпион (Алексей Андрианов) [2012, Россия, триллер, детектив, приключения, Blu-Ray disc 1080p] Original Rus

в форуме Наше кино (HD Video), Размер: 18.73 ГБ, Здоровье: 100%

Anonymous

0
3|2

92
0

12 апр 2015, 15:05

Anonymous Перейти к последнему сообщению

В этой теме нет новых непрочитанных сообщений. Скачать торрент Проверен Сияние / The Shining (Стэнли Кубрик / Stanley Kubrick) [1980, США, Великобритания, ужасы, триллер, драма, детектив, BDRip, 480p] MVO + MVO + Original + sub (rus, eng)

в форуме Фильмы для iPod, iPhone, iPad, Размер: 2.21 ГБ, Здоровье: 100%

Anonymous

0
36|11

62
0

11 май 2015, 01:40

Anonymous Перейти к последнему сообщению

В этой теме нет новых непрочитанных сообщений. Скачать торрент Проверен Исчезновение на 7-й улице / Vanishing on 7th Street (Брэд Андерсон / Brad Anderson) [2010, ужасы, триллер, детектив, BDRip, 480p] DUB, Original + sub (eng)

в форуме Фильмы для iPod, iPhone, iPad, Размер: 1.06 ГБ, Здоровье: 100%

Гость

0
14|4

78
0

11 май 2015, 01:32

Гость Перейти к последнему сообщению



Сейчас этот форум просматривают: нет зарегистрированных пользователей и гости: 1


Вы не можете начинать темы
Вы не можете отвечать на сообщения
Вы не можете редактировать свои сообщения
Вы не можете удалять свои сообщения
Вы не можете добавлять вложения


!ВНИМАНИЕ!
 Ресурс не предоставляет электронные версии произведений, а занимается лишь коллекционированием и каталогизацией ссылок, присылаемых и публикуемых на форуме нашими читателями. Если вы являетесь правообладателем какого-либо представленного материала и не желаете чтобы ссылка на него находилась в нашем каталоге, свяжитесь с нами и мы незамедлительно удалим её. Файлы для обмена на трекере предоставлены пользователями сайта, и администрация не несёт ответственности за их содержание. Просьба не заливать файлы, защищенные авторскими правами, а также файлы нелегального содержания!