На всех торрентах на трекере установлена скидка на скачивание в размере 100 процентов(а).
 Возможность скачивания торрента НЕ зависит от ограничений при низком ратио, низком аплоаде, требуемом ратио или требуемом аплоаде.


Начать новую тему Ответить на тему
Статистика раздачи
Размер: 1.46 ГБ | Добавлен: 21 окт 2014, 20:58 | Скачали: 4
Сидеров: 101  [0 байт/сек]    Личеров: 23  [0 байт/сек]
Пред. тема | След. тема 

Автор
Сообщение

СообщениеДобавлено: 21 окт 2014, 20:58 

Ответить с цитатой 

Жанр: мелодрама, комедия, детектив
Год выпуска: 1966
Продолжительность: 01:32:34

Режиссёр: Эльдар Рязанов

В ролях: Иннокентий Смоктуновский, Олег Ефремов, Любовь Добржанская, Ольга Аросева, Андрей Миронов, Татьяна Гаврилова, Анатолий Папанов, Георгий Жжёнов, Евгений Евстигнеев, Сергей Кулагин, Виктория Радунская, Готлиб Ронинсон, Борис Рунге, Яков Ленц, Вячеслав Невинный, Донатас Банионис, Галина Волчек, Любовь Соколова, Антонина Максимова, Юлиана Бугаева, Зоя Исаева, Нина Крачковская, Николай Парфёнов, Инга Будкевич, Алексей Коренев, Георгий Шаповалов, Владимир Липпарт, Евгений Шутов, Юрий Киреев, Сергей Жирнов, Владимир Нахабцев, Эмилия Мильтон, Нонна Тен, Юрий Яковлев

Описание: Юрий Деточкин не может оставаться равнодушным, когда рядом кто-то живет нечестно. Сам он работает страховым агентом, и для борьбы с жуликами у него есть и свободное время, и возможность найти таковых. Борется он с махинаторами и ворами, угоняя их автомобили. Злостного угонщика разыскивает милиционер, вместе с которым Деточкин играет в любительском театре.


Доп. информация:
Авторы сценария: Эмиль Брагинский, Эльдар Рязанов
Операторы: Владимир Нахабцев, Анатолий Мукасей
Художники-постановщики: Борис Немечек, Лев Семенов
Композитор: Андрей Петров
Звукорежиссер: Валерий Попов
Монтаж: Е. Овсянникова

Полная реставрация изображения и звука. Исходные киноматериалы подготовлены Госфильмофондом России. Покадровая цифровая реставрация изображения, ремастеринг звука и авторинг проведены объединением «Крупный план».


СемплКачество видео: BDRip (Blu-Ray)
Формат видео: AVI

Видео: 720x544 (1.33:1), 23,976 fps, XviD MPEG-4 ~1805 kbps avg, 0.192 bit/pixel
Аудио: 48 kHz, AC3 Dolby Digital, 3/2 (L,C,R,l,r) + LFE ch, ~448.00 kbps avg
Полное имя : C:\Beregis.avtomobilya.1966.XviD.BDRip.avi
Формат : AVI
Формат/Информация : Audio Video Interleave
Размер файла : 1,46 Гбайт
Продолжительность : 1 ч. 32 м.
Общий поток : 2262 Кбит/сек
Название фильма : Берегись автомобиля (Эльдар Рязанов) 1966
Режиссёр : Release by ==nnlabetik==
Программа кодирования : VirtualDubMod 1.5.10.2 (build 2540/release)
Библиотека кодирования : VirtualDubMod build 2540/release

Видео
Идентификатор : 0
Формат : MPEG-4 Visual
Профиль формата : Advanced Simple@L5
Параметр BVOP формата : 1
Параметр QPel формата : Нет
Параметр GMC формата : Без точки перехода
Параметр матрицы формата : Выборочная
Идентификатор кодека : XVID
Идентификатор кодека/Подсказка : XviD
Продолжительность : 1 ч. 32 м.
Битрейт : 1805 Кбит/сек
Ширина : 720 пикселей
Высота : 544 пикселя
Соотношение сторон : 4:3
Частота кадров : 23,976 кадра/сек
Цветовое пространство : YUV
Субдискретизация насыщенности : 4:2:0
Битовая глубина : 8 бит
Тип развёртки : Прогрессивная
Метод сжатия : С потерями
Бит/(Пиксели*Кадры) : 0.192
Размер потока : 1,16 Гбайт (80%)
Библиотека кодирования : XviD 1.2.1 (UTC 2008-12-04)

Аудио
Идентификатор : 1
Формат : AC-3
Формат/Информация : Audio Coding 3
Расширение режима : CM (complete main)
Параметр Endianness формата : Big
Идентификатор кодека : 2000
Продолжительность : 1 ч. 32 м.
Вид битрейта : Постоянный
Битрейт : 448 Кбит/сек
Каналы : 6 каналов
Расположение каналов : Front: L C R, Side: L R, LFE
Частота : 48,0 КГц
Битовая глубина : 16 бит
Метод сжатия : С потерями
Размер потока : 296 Мбайт (20%)
Выравнивание : Разделение по промежуткам
Продолжительность промежутка : 42 мс. (1,00 видеокадр)
Время предзагрузки промежутка : 500 мс.

загрузка...
Правила, инструкции, FAQ!!!
Торрент  Добавлен [21 окт 2014, 20:58] Скачать торрент Магнет ссылка
Скачать торрент
[ Размер 15.21 КБ / Просмотров 29 ]

Статус
Проверен 
 
Размер  1.46 ГБ
Приватный: Нет (DHT включён)
.torrent скачан  4
Как залить торрент? | Как скачать Torrent? | Ошибка в торренте? Качайте магнет  


     Отправить личное сообщение
   
Страница 1 из 1
Показать сообщения за:  Поле сортировки  
Начать новую тему Ответить на тему

   Похожие торренты   Автор   Ответы   Просмотры   Последнее сообщение 
В этой теме нет новых непрочитанных сообщений. Скачать торрент Проверен Берегись автомобиля (Эльдар Рязанов) [1966, СССР, мелодрама, комедия, криминал, BDRip 1080p]

в форуме Наше кино (HD Video), Размер: 9.25 ГБ, Здоровье: 100%

Anonymous

0
104|32

260
3

12 апр 2015, 15:07

Anonymous Перейти к последнему сообщению

В этой теме нет новых непрочитанных сообщений. Скачать торрент Проверен Берегись автомобиля (Эльдар Рязанов) [1966, СССР, мелодрама, комедия, криминал, BDRip 720p]

в форуме Наше кино (HD Video), Размер: 2.94 ГБ, Здоровье: 100%

Anonymous

0
84|28

106
4

12 апр 2015, 15:01

Anonymous Перейти к последнему сообщению

В этой теме нет новых непрочитанных сообщений. Скачать торрент Проверен Берегись автомобиля (Эльдар Рязанов) [1966, мелодрама, комедия, криминал, BDRip, 480p] Original

в форуме Фильмы для iPod, iPhone, iPad, Размер: 1.19 ГБ, Здоровье: 100%

Anonymous

0
3|1

53
2

24 дек 2017, 23:11

Anonymous Перейти к последнему сообщению

В этой теме нет новых непрочитанных сообщений. Скачать торрент Проверен Эмиль Брагинский, Эльдар Рязанов - Берегись автомобиля [Николай Фоменко, 2006, 96 kbps]

в форуме Детектив и Боевики, Размер: 108.98 МБ, Здоровье: 100%

Anonymous

0
2|0

69
0

04 май 2016, 22:11

Anonymous Перейти к последнему сообщению

В этой теме нет новых непрочитанных сообщений. Скачать торрент Проверен Эмиль Брагинский и Эльдар Рязанов - Берегись автомобиля [Николай Фоменко, 2006, 320 kbps]

в форуме Детектив и Боевики, Размер: 408.8 МБ, Здоровье: 100%

Anonymous

0
53|1

86
1

04 май 2016, 22:47

Anonymous Перейти к последнему сообщению



Сейчас этот форум просматривают: нет зарегистрированных пользователей и гости: 0


Вы не можете начинать темы
Вы не можете отвечать на сообщения
Вы не можете редактировать свои сообщения
Вы не можете удалять свои сообщения
Вы не можете добавлять вложения

Перейти:  
Ресурс не предоставляет электронные версии произведений, а занимается лишь коллекционированием и каталогизацией ссылок, присылаемых и публикуемых на форуме нашими читателями. Если вы являетесь правообладателем какого-либо представленного материала и не желаете чтобы ссылка на него находилась в нашем каталоге, свяжитесь с нами и мы незамедлительно удалим её. Файлы для обмена на трекере предоставлены пользователями сайта, и администрация не несёт ответственности за их содержание. Просьба не заливать файлы, защищенные авторскими правами, а также файлы нелегального содержания!
cron