На всех торрентах на трекере установлена скидка на скачивание в размере 100 процентов(а).
 Возможность скачивания торрента НЕ зависит от ограничений при низком ратио, низком аплоаде, требуемом ратио или требуемом аплоаде.


Начать новую тему Ответить на тему
Статистика раздачи
Размер: 2.28 ГБ | Добавлен: 05 окт 2018, 20:52 | Скачали: 0
Сидеров: 1  [0 байт/сек]    Личеров: 0  [0 байт/сек]
Пред. тема | След. тема 

Автор
Сообщение

СообщениеДобавлено: 05 окт 2018, 20:52 

Ответить с цитатой 

Бегущий в лабиринте: Лекарство от смерти / Maze Runner: The Death Cure
«Из каждого лабиринта всегда есть выход»

Страна: США
Жанр: фантастика, боевик, триллер
Год выпуска: 2018
Продолжительность: 02:23:52
Перевод: Профессиональный (дублированный) (iTunes)
Оригинальная аудиодорожка: английский
Субтитры: русские (полные) английские (полные, SDH)
Навигация по главам: есть
Режиссер: Уэс Болл / Wes Ball
В ролях: Дилан О’Брайен (Thomas), Ли Ги-хон (Minho), Кая Скоделарио (Teresa), Томас Сэнгстер (Newt), Декстер Дарден (Frypan), Уилл Поултер (Gally), Джейкоб Лофленд (Aris), Роза Салазар (Brenda), Джанкарло Эспозито (Jorge), Патришия Кларксон (Ava Paige), Эйдан Гиллен (Janson), Барри Пеппер (Vince)
Описание: Томас возглавляет отряд выживших глейдеров, чтобы выполнить последнюю и самую опасную миссию. Ради спасения своих друзей они должны проникнуть в легендарный Последний город, смертоносный лабиринт, контролируемый ПОРОКом. Каждый, кто выживет там, наконец-то получит ответы на все вопросы, которые мучили глейдеров с момента попадания в лабиринт.

Качество: HDRip-AVC
Формат видео: MKV
Видео: x264, 1024x428 (2.40:1) 23,976 fps, ~1644 kbps, 0.156 bit/pixel
Аудио 1: 48 kHz, AC3 Dolby Digital, 5.1 (Front: L C R, Side: L R, LFE) ch, ~384 kbps, [русский]
Аудио 2: 48 kHz, AC3 Dolby Digital, 2.0 (Front: L R) ch, ~192 kbps, [английский]
Формат субтитров: softsub (SRT)
Format : Matroska
Format version : Version 4 / Version 2
File size : 2.28 GiB
Duration : 2 h 23 min
Overall bit rate : 2 265 kb/s
Movie name : Бегущий в лабиринте: Лекарство от смерти / Maze Runner: The Death Cure (2018) :: AFM ::
Encoded date : UTC 2018-04-21 23:33:18
Writing application : mkvmerge v8.3.0 ('Over the Horizon') 32bit
Writing library : libebml v1.3.1 + libmatroska v1.4.2
Cover : Yes
Attachments : cover.jpg
Video
ID : 1
Format : AVC
Format/Info : Advanced Video Codec
Format profile : High@L4.1
Format settings, CABAC : Yes
Format settings, RefFrames : 12 frames
Codec ID : V_MPEG4/ISO/AVC
Duration : 2 h 23 min
Bit rate : 1 644 kb/s
Width : 1 024 pixels
Height : 428 pixels
Display aspect ratio : 2.40:1
Frame rate mode : Constant
Frame rate : 23.976 (24000/1001) FPS
Color space : YUV
Chroma subsampling : 4:2:0
Bit depth : 8 bits
Scan type : Progressive
Bits/(Pixel*Frame) : 0.156
Stream size : 1.65 GiB (73%)
Title : HDRip by AFM
Writing library : x264 core 152 r2851+45 9658d1a 7mod [8-bit@all X86_64]
Encoding settings : cabac=1 / ref=12 / deblock=1:-2:-2 / analyse=0x3:0x133 / me=umh / subme=10 / psy=1 / fade_compensate=0.00 / psy_rd=1.00:0.00 / mixed_ref=1 / me_range=32 / chroma_me=0 / trellis=2 / 8x8dct=1 / cqm=0 / deadzone=21,11 / fast_pskip=0 / chroma_qp_offset=-2 / threads=6 / lookahead_threads=1 / sliced_threads=0 / nr=0 / decimate=1 / interlaced=0 / bluray_compat=0 / constrained_intra=0 / fgo=0 / bframes=13 / b_pyramid=2 / b_adapt=2 / b_bias=0 / direct=1 / weightb=1 / open_gop=0 / weightp=2 / keyint=240 / keyint_min=23 / scenecut=40 / intra_refresh=0 / rc_lookahead=90 / rc=crf / mbtree=0 / crf=18.3000 / qcomp=0.65 / qpmin=0:0:0 / qpmax=69:69:69 / qpstep=4 / vbv_maxrate=50000 / vbv_bufsize=62500 / crf_max=0.0 / nal_hrd=none / filler=0 / ip_ratio=1.35 / pb_ratio=1.25 / aq=4:0.80 / aq-sensitivity=10.00 / aq-factor=1.00:1.00:1.00 / aq2=0 / aq3=0
Language : English
Default : Yes
Forced : No
Audio #1
ID : 2
Format : AC-3
Format/Info : Audio Coding 3
Format settings, Endianness : Big
Codec ID : A_AC3
Duration : 2 h 23 min
Bit rate mode : Constant
Bit rate : 384 kb/s
Channel(s) : 6 channels
Channel positions : Front: L C R, Side: L R, LFE
Sampling rate : 48.0 kHz
Frame rate : 31.250 FPS (1536 SPF)
Bit depth : 16 bits
Compression mode : Lossy
Stream size : 395 MiB (17%)
Title : Dub, AC3 5.1 ~384 kbps
Language : Russian
Service kind : Complete Main
Default : Yes
Forced : No
Audio #2
ID : 3
Format : AC-3
Format/Info : Audio Coding 3
Format settings, Endianness : Big
Codec ID : A_AC3
Duration : 2 h 23 min
Bit rate mode : Constant
Bit rate : 192 kb/s
Channel(s) : 2 channels
Channel positions : Front: L R
Sampling rate : 48.0 kHz
Frame rate : 31.250 FPS (1536 SPF)
Bit depth : 16 bits
Compression mode : Lossy
Stream size : 198 MiB (8%)
Title : Original, AC3 2.0 ~192 kbps
Language : English
Service kind : Complete Main
Default : No
Forced : No
Text #1
ID : 4
Format : UTF-8
Codec ID : S_TEXT/UTF8
Codec ID/Info : UTF-8 Plain Text
Language : Russian
Default : No
Forced : No
Text #2
ID : 5
Format : UTF-8
Codec ID : S_TEXT/UTF8
Codec ID/Info : UTF-8 Plain Text
Language : English
Default : No
Forced : No
Text #3
ID : 6
Format : UTF-8
Codec ID : S_TEXT/UTF8
Codec ID/Info : UTF-8 Plain Text
Title : SDH
Language : English
Default : No
Forced : No
Menu
00:00:00.000 : en:Chapter 1
00:11:31.607 : en:Chapter 2
00:15:59.750 : en:Chapter 3
00:20:08.457 : en:Chapter 4
00:24:34.890 : en:Chapter 5
00:30:40.547 : en:Chapter 6
00:36:47.330 : en:Chapter 7
00:43:15.342 : en:Chapter 8
00:48:06.341 : en:Chapter 9
00:55:17.397 : en:Chapter 10
01:02:42.925 : en:Chapter 11
01:07:14.488 : en:Chapter 12
01:11:56.061 : en:Chapter 13
01:15:48.210 : en:Chapter 14
01:23:20.328 : en:Chapter 15
01:29:45.421 : en:Chapter 16
01:34:00.593 : en:Chapter 17
01:40:09.795 : en:Chapter 18
01:43:33.081 : en:Chapter 19
01:53:38.645 : en:Chapter 20
01:59:43.885 : en:Chapter 21
02:04:49.398 : en:Chapter 22
02:10:03.086 : en:Chapter 23
02:18:03.858 : en:Chapter 24
x264 [info]: frame I:1360 Avg QP:16.92 size: 44817
x264 [info]: frame P:47713 Avg QP:18.60 size: 17876
x264 [info]: frame B:157902 Avg QP:21.62 size: 5742
x264 [info]: consecutive B-frames: 2.3% 3.4% 9.4% 30.5% 16.0% 21.0% 6.8% 7.6% 2.0% 0.4% 0.1% 0.2% 0.1% 0.2%
x264 [info]: mb I I16..4: 7.9% 69.4% 22.7%
x264 [info]: mb P I16..4: 2.1% 12.4% 2.8% P16..4: 42.8% 20.1% 13.3% 0.8% 0.3% skip: 5.5%
x264 [info]: mb B I16..4: 0.1% 1.0% 0.3% B16..8: 41.1% 10.0% 2.5% direct: 5.7% skip:39.3% L0:41.8% L1:45.1% BI:13.1%
x264 [info]: 8x8 transform intra:70.5% inter:68.5%
x264 [info]: coded y,uvDC,uvAC intra: 77.8% 80.3% 53.7% inter: 19.1% 19.7% 4.0%
x264 [info]: i16 v,h,dc,p: 19% 17% 7% 57%
x264 [info]: i8 v,h,dc,ddl,ddr,vr,hd,vl,hu: 11% 11% 4% 9% 13% 13% 14% 11% 13%
x264 [info]: i4 v,h,dc,ddl,ddr,vr,hd,vl,hu: 11% 10% 3% 10% 15% 14% 14% 11% 13%
x264 [info]: i8c dc,h,v,p: 35% 27% 20% 18%
x264 [info]: Weighted P-Frames: Y:98.0% UV:5.0%
x264 [info]: ref P L0: 52.4% 11.5% 13.9% 5.4% 4.1% 3.2% 2.7% 1.6% 1.5% 1.3% 1.2% 1.1% 0.1% 0.0%
x264 [info]: ref B L0: 81.1% 8.3% 3.8% 1.9% 1.3% 1.1% 0.9% 0.6% 0.5% 0.4% 0.2%
x264 [info]: ref B L1: 95.7% 4.3%
x264 [info]: kb/s:1687.14
загрузка...
Правила, инструкции, FAQ!!!
Торрент  Добавлен [05 окт 2018, 20:52] Скачать торрент Магнет ссылка
Скачать торрент
[ Размер 11.96 КБ / Просмотров 8 ]

Статус
Проверен 
 
Размер  2.28 ГБ
Приватный: Нет (DHT включён)
.torrent скачан  0
Как залить торрент? | Как скачать Torrent? | Ошибка в торренте? Качайте магнет  


     Отправить личное сообщение
   
Страница 1 из 1
Показать сообщения за:  Поле сортировки  
Начать новую тему Ответить на тему

   Похожие торренты   Автор   Ответы   Просмотры   Последнее сообщение 
В этой теме нет новых непрочитанных сообщений. Скачать торрент Проверен Бегущий в лабиринте: Лекарство от смерти / Maze Runner: The Death Cure (Уэс Болл / Wes Ball) [2018, США, фантастика, боевик, триллер, HDRip] Sub (Rus, Eng) + Original Eng

в форуме Фантастика, Фэнтези, Размер: 1.46 ГБ, Здоровье: 100%

Anonymous

0
69|22

9
0

05 окт 2018, 19:56

Anonymous Перейти к последнему сообщению

В этой теме нет новых непрочитанных сообщений. Скачать торрент Проверен Бегущий в лабиринте: Лекарство от смерти / Maze Runner: The Death Cure (Уэс Болл / Wes Ball) [2018, США, фантастика, боевик, триллер, HDRip] Dub (iTunes) + Sub (Rus, Eng) + Original Eng

в форуме Фантастика, Фэнтези, Размер: 2.19 ГБ, Здоровье: 100%

Anonymous

0
35|11

10
0

05 окт 2018, 19:57

Anonymous Перейти к последнему сообщению

В этой теме нет новых непрочитанных сообщений. Скачать торрент Проверен Бегущий в лабиринте: Лекарство от смерти / Maze Runner: The Death Cure (Уэс Болл / Wes Ball) [2018, США, фантастика, боевик, триллер, BDRip-AVC] Dub + Original + Sub (rus, eng)

в форуме Фантастика, Фэнтези, Размер: 3.01 ГБ, Здоровье: 100%

Anonymous

0
69|22

8
0

05 окт 2018, 20:53

Anonymous Перейти к последнему сообщению

В этой теме нет новых непрочитанных сообщений. Скачать торрент Проверен Бегущий в лабиринте: Лекарство от смерти / Maze Runner: The Death Cure (Уэс Болл / Wes Ball) [2018, США, фантастика, боевик, триллер, BDRip] Dub (iTunes) + Sub (Rus, Eng) + Original Eng

в форуме Фантастика, Фэнтези, Размер: 2.92 ГБ, Здоровье: 100%

Anonymous

0
48|16

5
0

05 окт 2018, 20:44

Anonymous Перейти к последнему сообщению

В этой теме нет новых непрочитанных сообщений. Скачать торрент Проверен Бегущий в лабиринте: Лекарство от смерти / Maze Runner: The Death Cure (Уэс Болл / Wes Ball) [2018, США, фантастика, боевик, триллер, BDRip-AVC] Dub

в форуме Фантастика, Фэнтези, Размер: 1.46 ГБ, Здоровье: 100%

Anonymous

0
35|11

7
0

05 окт 2018, 20:45

Anonymous Перейти к последнему сообщению



Сейчас этот форум просматривают: нет зарегистрированных пользователей и гости: 0


Вы не можете начинать темы
Вы не можете отвечать на сообщения
Вы не можете редактировать свои сообщения
Вы не можете удалять свои сообщения
Вы не можете добавлять вложения

Перейти:  
Ресурс не предоставляет электронные версии произведений, а занимается лишь коллекционированием и каталогизацией ссылок, присылаемых и публикуемых на форуме нашими читателями. Если вы являетесь правообладателем какого-либо представленного материала и не желаете чтобы ссылка на него находилась в нашем каталоге, свяжитесь с нами и мы незамедлительно удалим её. Файлы для обмена на трекере предоставлены пользователями сайта, и администрация не несёт ответственности за их содержание. Просьба не заливать файлы, защищенные авторскими правами, а также файлы нелегального содержания!
cron