На всех торрентах на трекере установлена скидка на скачивание в размере 100 процентов(а).
 Возможность скачивания торрента НЕ зависит от ограничений при низком ратио, низком аплоаде, требуемом ратио или требуемом аплоаде.


Начать новую тему Ответить на тему
Статистика раздачи
Размер: 7.76 ГБ | Добавлен: 10 мар 2018, 17:08 | Скачали: 0
Сидеров: 1  [0 байт/сек]    Личеров: 0  [0 байт/сек]
Пред. тема | След. тема 

Автор
Сообщение

СообщениеДобавлено: 10 мар 2018, 17:08 

Ответить с цитатой 

Название: Бегущий человек
Оригинальное название: The Running Man
Год выпуска: 1987
Жанр: Фантастика, боевик
Выпущено: США, Braveworld Productions, Home Box Office (HBO), Keith Barish Productions, TAFT Entertainment Pictures
Режиссер: Пол Майкл Глейзер
В ролях: Арнольд Шварценеггер, Мария Кончита Алонсо, Яфет Котто, Джим Браун, Джесси Вентура, Эрланд ван Лидт, Марвин Дж. МакИнтайр, Гас Ретвиш, Профессор Тору Танака, Мик Флитвуд, Дуизил Заппа, Ричард Даусон, Карен Ли Хопкинс, Свен-Оле Торсен, Эдвард Банкер, Брайан Кестнер, Энтони Пена, Курт Фуллер, Кен Лернер, Дей Янг, Роджер Бампасс, Донна Харди, Линн Мари Стюарт, Билл Марголин, Тони Брубэйкер, Джоэль Крамер, Билли Д. Лукас, Джордж П. Вилбур, Томас Розалес мл., Сондра Холт, Дэниэл Селарио, Марио Селарио, Сидни Чанкин, Ким Павлик, Роджер Керн

О фильме: К 2017 году излюбленным развлечением для жителей Америки, превратившейся в полувоенное государство, стало садистское телешоу «Бегущий человек», участники которого, невинные жертвы, не имели ни единого шанса на выживание. Среди них оказался полицейский Бэн Ричардс, отказавшийся расстрелять безоружную толпу голодных людей. Теперь вместе с собратьями по несчастью ему предстоит принять участие в безумной гонке со смертью, сразиться с непобедимыми монстрами — Профессором Крио, Бензопилой, Шаровой Молнией и Динамо и отомстить бесчеловечному хозяину шоу. По произведению Стивена Кинга.

Качество: BDRip 720p
Размер: 7.76 ГБ
Продолжительность: 01:40:43

Видео: MPEG-4 AVC, 5235 Kбит/с, 1280x720
Аудио 1: русский, 48 kHz, AC3, 6 ch, 448 kbps avg, [Профессиональный многоголосый, Карусель]
Аудио 2: русский, 48 kHz, AC3, 6 ch, 640 kbps avg, [Авторский, Андрей Гаврилов]

Внешние файлы
Аудио: русский, 48 kHz, AC3, 2 ch, 192 kbps avg, [Профессиональный многоголосый, СТС]
Аудио: русский, 48 kHz, AC3, 2 ch, 192 kbps avg, [Профессиональный многоголосый, НТВ+]
Аудио: русский, 48 kHz, AC3, 2 ch, 192 kbps avg, [Профессиональный многоголосый, ОРТ]
Аудио: русский, 48 kHz, DTS, 6 ch, 1509 kbps avg, [Профессиональный многоголосый, Карусель]
Аудио: русский, 48 kHz, AC3, 2 ch, 192 kbps avg, [Профессиональный многоголосый, Останкино]
Аудио: русский, 48 kHz, AC3, 6 ch, 448 kbps avg, [Профессиональный двухголосый, R5]
Аудио: русский, 48 kHz, AC3, 2 ch, 192 kbps avg, [Профессиональный двухголосый, TV1000]
Аудио: русский, 48 kHz, AC3, 6 ch, 640 kbps avg, [Авторский, Василий Горчаков]
Аудио: русский, 48 kHz, AC3, 2 ch, 192 kbps avg, [Авторский, Александр Марченко]
Аудио: русский, 48 kHz, AC3, 2 ch, 192 kbps avg, [Авторский, Никитин]
Аудио: русский, 48 kHz, AC3, 1 ch, 192 kbps avg, [Авторский, Юрий Сербин]
Аудио: английский, 48 kHz, AC3, 6 ch, 448 kbps avg, [Оригинал]
Субтитры: русские, вариант 1
Субтитры: русские, вариант 2
Субтитры: английские
Субтитры: английские, для слабослышащих

Имеются неименованные главы/чаптеры.

Исходник: DestinationMan (Кинозал)

Сравнение с исходником



Общее
Полное имя : D:VideoBegushij chelovek.1987.BDRip.720pBegushij chelovek.1987.AVO.rus.А.Марченко.ac3
Формат : AC-3
Формат/Информация : Audio Coding 3
Размер файла : 138 Мбайт
Продолжительность : 1 ч. 40 м.
Режим общего битрейта : Постоянный
Общий поток : 192 Кбит/сек

Аудио
Формат : AC-3
Формат/Информация : Audio Coding 3
Расширение режима : CM (complete main)
Параметр Endianness формата : Big
Продолжительность : 1 ч. 40 м.
Вид битрейта : Постоянный
Битрейт : 192 Кбит/сек
Каналы : 2 канала
Расположение каналов : Front: L R
Частота : 48,0 КГц
Битовая глубина : 16 бит
Метод сжатия : С потерями
Размер потока : 138 Мбайт (100%)

Общее
Полное имя : D:VideoBegushij chelovek.1987.BDRip.720pBegushij chelovek.1987.AVO.rus.В.Горчаков.ac3
Формат : AC-3
Формат/Информация : Audio Coding 3
Размер файла : 461 Мбайт
Продолжительность : 1 ч. 40 м.
Режим общего битрейта : Постоянный
Общий поток : 640 Кбит/сек

Аудио
Формат : AC-3
Формат/Информация : Audio Coding 3
Расширение режима : CM (complete main)
Параметр Endianness формата : Big
Продолжительность : 1 ч. 40 м.
Вид битрейта : Постоянный
Битрейт : 640 Кбит/сек
Каналы : 6 каналов
Расположение каналов : Front: L C R, Side: L R, LFE
Частота : 48,0 КГц
Битовая глубина : 16 бит
Метод сжатия : С потерями
Размер потока : 461 Мбайт (100%)

Общее
Полное имя : D:VideoBegushij chelovek.1987.BDRip.720pBegushij chelovek.1987.AVO.rus.Никитин.ac3
Формат : AC-3
Формат/Информация : Audio Coding 3
Размер файла : 138 Мбайт
Продолжительность : 1 ч. 40 м.
Режим общего битрейта : Постоянный
Общий поток : 192 Кбит/сек

Аудио
Формат : AC-3
Формат/Информация : Audio Coding 3
Расширение режима : CM (complete main)
Параметр Endianness формата : Big
Продолжительность : 1 ч. 40 м.
Вид битрейта : Постоянный
Битрейт : 192 Кбит/сек
Каналы : 2 канала
Расположение каналов : Front: L R
Частота : 48,0 КГц
Битовая глубина : 16 бит
Метод сжатия : С потерями
Размер потока : 138 Мбайт (100%)

Общее
Полное имя : D:VideoBegushij chelovek.1987.BDRip.720pBegushij chelovek.1987.AVO.rus.Ю.Сербин.ac3
Формат : AC-3
Формат/Информация : Audio Coding 3
Размер файла : 138 Мбайт
Продолжительность : 1 ч. 40 м.
Режим общего битрейта : Постоянный
Общий поток : 192 Кбит/сек

Аудио
Формат : AC-3
Формат/Информация : Audio Coding 3
Расширение режима : CM (complete main)
Параметр Endianness формата : Big
Продолжительность : 1 ч. 40 м.
Вид битрейта : Постоянный
Битрейт : 192 Кбит/сек
Каналы : 1 канал
Расположение каналов : Front: C
Частота : 48,0 КГц
Битовая глубина : 16 бит
Метод сжатия : С потерями
Размер потока : 138 Мбайт (100%)

Общее
Уникальный идентификатор : 216674694020394129745561508412631248746 (0xA302073436F1757E83CD6BCDDBEB6F6A)
Полное имя : D:VideoBegushij chelovek.1987.BDRip.720pBegushij chelovek.1987.BDRip.720p.mkv
Формат : Matroska
Версия формата : Version 4 / Version 2
Размер файла : 4,54 Гбайт
Продолжительность : 1 ч. 40 м.
Общий поток : 6452 Кбит/сек
Дата кодирования : UTC 2014-07-14 02:11:02
Программа кодирования : mkvmerge v6.9.1 ('Blue Panther') 64bit built on Apr 18 2014 18:23:38
Библиотека кодирования : libebml v1.3.0 + libmatroska v1.4.1

Видео
Идентификатор : 1
Формат : AVC
Формат/Информация : Advanced Video Codec
Профиль формата : High@L4.1
Параметр CABAC формата : Да
Параметр ReFrames формата : 9 кадров
Идентификатор кодека : V_MPEG4/ISO/AVC
Продолжительность : 1 ч. 40 м.
Битрейт : 5235 Кбит/сек
Ширина : 1280 пикселей
Высота : 720 пикселей
Соотношение сторон : 16:9
Режим частоты кадров : Постоянный
Частота кадров : 23,976 кадра/сек
Цветовое пространство : YUV
Субдискретизация насыщенности : 4:2:0
Битовая глубина : 8 бит
Тип развёртки : Прогрессивная
Бит/(Пиксели*Кадры) : 0.237
Размер потока : 3,68 Гбайт (81%)
Заголовок : BDRip -- STarankov
Библиотека кодирования : x264 core 142 r2431 ac76440
Настройки программы : cabac=1 / ref=9 / deblock=1:-1:-1 / analyse=0x3:0x113 / me=umh / subme=10 / psy=1 / psy_rd=1.00:0.15 / mixed_ref=1 / me_range=32 / chroma_me=1 / trellis=2 / 8x8dct=1 / cqm=0 / deadzone=21,11 / fast_pskip=0 / chroma_qp_offset=-3 / threads=6 / lookahead_threads=1 / sliced_threads=0 / nr=0 / decimate=1 / interlaced=0 / bluray_compat=0 / constrained_intra=0 / bframes=6 / b_pyramid=2 / b_adapt=2 / b_bias=0 / direct=1 / weightb=1 / open_gop=0 / weightp=2 / keyint=230 / keyint_min=23 / scenecut=40 / intra_refresh=0 / rc_lookahead=40 / rc=crf / mbtree=0 / crf=19.5 / qcomp=0.60 / qpmin=0 / qpmax=69 / qpstep=4 / vbv_maxrate=40000 / vbv_bufsize=50000 / crf_max=0.0 / nal_hrd=none / filler=0 / ip_ratio=1.40 / pb_ratio=1.30 / aq=1:1.00
Язык : English
Default : Да
Forced : Нет

Аудио #1
Идентификатор : 2
Формат : AC-3
Формат/Информация : Audio Coding 3
Расширение режима : CM (complete main)
Параметр Endianness формата : Big
Идентификатор кодека : A_AC3
Продолжительность : 1 ч. 40 м.
Вид битрейта : Постоянный
Битрейт : 448 Кбит/сек
Каналы : 6 каналов
Расположение каналов : Front: L C R, Side: L R, LFE
Частота : 48,0 КГц
Битовая глубина : 16 бит
Метод сжатия : С потерями
Размер потока : 323 Мбайт (7%)
Заголовок : MVO (Карусель)
Язык : Russian
Default : Да
Forced : Нет

Аудио #2
Идентификатор : 3
Формат : AC-3
Формат/Информация : Audio Coding 3
Расширение режима : CM (complete main)
Параметр Endianness формата : Big
Идентификатор кодека : A_AC3
Продолжительность : 1 ч. 40 м.
Вид битрейта : Постоянный
Битрейт : 640 Кбит/сек
Каналы : 6 каналов
Расположение каналов : Front: L C R, Side: L R, LFE
Частота : 48,0 КГц
Битовая глубина : 16 бит
Метод сжатия : С потерями
Размер потока : 461 Мбайт (10%)
Заголовок : AVO (Андрей Гаврилов)
Язык : Russian
Default : Нет
Forced : Нет

Меню
00:00:00.000 : en:00:00:00.000
00:03:21.576 : en:00:03:21.576
00:09:36.159 : en:00:09:36.159
00:14:31.537 : en:00:14:31.537
00:16:36.704 : en:00:16:36.704
00:21:57.358 : en:00:21:57.358
00:24:32.012 : en:00:24:32.012
00:27:58.385 : en:00:27:58.385
00:34:06.711 : en:00:34:06.711
00:39:19.315 : en:00:39:19.315
00:43:57.885 : en:00:43:57.885
00:45:14.962 : en:00:45:14.962
00:49:27.381 : en:00:49:27.381
00:53:38.632 : en:00:53:38.632
00:57:17.184 : en:00:57:17.184
01:02:37.170 : en:01:02:37.170
01:05:09.489 : en:01:05:09.489
01:09:18.196 : en:01:09:18.196
01:14:34.970 : en:01:14:34.970
01:18:05.431 : en:01:18:05.431
01:22:41.123 : en:01:22:41.123
01:25:50.395 : en:01:25:50.395
01:29:39.666 : en:01:29:39.666
01:34:29.038 : en:01:34:29.038

Общее
Полное имя : D:VideoBegushij chelovek.1987.BDRip.720pBegushij chelovek.1987.DVO.rus.R5.ac3
Формат : AC-3
Формат/Информация : Audio Coding 3
Размер файла : 323 Мбайт
Продолжительность : 1 ч. 40 м.
Режим общего битрейта : Постоянный
Общий поток : 448 Кбит/сек

Аудио
Формат : AC-3
Формат/Информация : Audio Coding 3
Расширение режима : CM (complete main)
Параметр Endianness формата : Big
Продолжительность : 1 ч. 40 м.
Вид битрейта : Постоянный
Битрейт : 448 Кбит/сек
Каналы : 6 каналов
Расположение каналов : Front: L C R, Side: L R, LFE
Частота : 48,0 КГц
Битовая глубина : 16 бит
Метод сжатия : С потерями
Размер потока : 323 Мбайт (100%)

Общее
Полное имя : D:VideoBegushij chelovek.1987.BDRip.720pBegushij chelovek.1987.DVO.rus.TV1000.ac3
Формат : AC-3
Формат/Информация : Audio Coding 3
Размер файла : 138 Мбайт
Продолжительность : 1 ч. 40 м.
Режим общего битрейта : Постоянный
Общий поток : 192 Кбит/сек

Аудио
Формат : AC-3
Формат/Информация : Audio Coding 3
Расширение режима : CM (complete main)
Параметр Endianness формата : Big
Продолжительность : 1 ч. 40 м.
Вид битрейта : Постоянный
Битрейт : 192 Кбит/сек
Каналы : 2 канала
Расположение каналов : Front: L R
Частота : 48,0 КГц
Битовая глубина : 16 бит
Метод сжатия : С потерями
Размер потока : 138 Мбайт (100%)

Общее
Полное имя : D:VideoBegushij chelovek.1987.BDRip.720pBegushij chelovek.1987.eng.SDN.srt
Формат : SubRip
Размер файла : 88,6 Кбайт

Текст
Формат : SubRip
Метод сжатия : Без потерь

Общее
Полное имя : D:VideoBegushij chelovek.1987.BDRip.720pBegushij chelovek.1987.eng.srt
Формат : SubRip
Размер файла : 80,8 Кбайт

Текст
Формат : SubRip
Метод сжатия : Без потерь

Общее
Полное имя : D:VideoBegushij chelovek.1987.BDRip.720pBegushij chelovek.1987.MVO.rus.CTC.ac3
Формат : AC-3
Формат/Информация : Audio Coding 3
Размер файла : 138 Мбайт
Продолжительность : 1 ч. 40 м.
Режим общего битрейта : Постоянный
Общий поток : 192 Кбит/сек

Аудио
Формат : AC-3
Формат/Информация : Audio Coding 3
Расширение режима : CM (complete main)
Параметр Endianness формата : Big
Продолжительность : 1 ч. 40 м.
Вид битрейта : Постоянный
Битрейт : 192 Кбит/сек
Каналы : 2 канала
Расположение каналов : Front: L R
Частота : 48,0 КГц
Битовая глубина : 16 бит
Метод сжатия : С потерями
Размер потока : 138 Мбайт (100%)

Общее
Полное имя : D:VideoBegushij chelovek.1987.BDRip.720pBegushij chelovek.1987.MVO.rus.HTB+.ac3
Формат : AC-3
Формат/Информация : Audio Coding 3
Размер файла : 138 Мбайт
Продолжительность : 1 ч. 40 м.
Режим общего битрейта : Постоянный
Общий поток : 192 Кбит/сек

Аудио
Формат : AC-3
Формат/Информация : Audio Coding 3
Расширение режима : CM (complete main)
Параметр Endianness формата : Big
Продолжительность : 1 ч. 40 м.
Вид битрейта : Постоянный
Битрейт : 192 Кбит/сек
Каналы : 2 канала
Расположение каналов : Front: L R
Частота : 48,0 КГц
Битовая глубина : 16 бит
Метод сжатия : С потерями
Размер потока : 138 Мбайт (100%)

Общее
Полное имя : D:VideoBegushij chelovek.1987.BDRip.720pBegushij chelovek.1987.MVO.rus.OPT.ac3
Формат : AC-3
Формат/Информация : Audio Coding 3
Размер файла : 138 Мбайт
Продолжительность : 1 ч. 40 м.
Режим общего битрейта : Постоянный
Общий поток : 192 Кбит/сек

Аудио
Формат : AC-3
Формат/Информация : Audio Coding 3
Расширение режима : CM (complete main)
Параметр Endianness формата : Big
Продолжительность : 1 ч. 40 м.
Вид битрейта : Постоянный
Битрейт : 192 Кбит/сек
Каналы : 2 канала
Расположение каналов : Front: L R
Частота : 48,0 КГц
Битовая глубина : 16 бит
Метод сжатия : С потерями
Размер потока : 138 Мбайт (100%)

Общее
Полное имя : D:VideoBegushij chelovek.1987.BDRip.720pBegushij chelovek.1987.MVO.rus.Карусель.dts
Формат : DTS
Формат/Информация : Digital Theater Systems
Размер файла : 1,06 Гбайт
Продолжительность : 1 ч. 40 м.
Режим общего битрейта : Постоянный
Общий поток : 1509 Кбит/сек

Аудио
Формат : DTS
Формат/Информация : Digital Theater Systems
Режим : 16
Параметр Endianness формата : Big
Продолжительность : 1 ч. 40 м.
Вид битрейта : Постоянный
Битрейт : 1509 Кбит/сек
Каналы : 6 каналов
Расположение каналов : Front: L C R, Side: L R, LFE
Частота : 48,0 КГц
Битовая глубина : 24 бит
Метод сжатия : С потерями
Размер потока : 1,06 Гбайт (100%)

Общее
Полное имя : D:VideoBegushij chelovek.1987.BDRip.720pBegushij chelovek.1987.MVO.rus.Останкино.ac3
Формат : AC-3
Формат/Информация : Audio Coding 3
Размер файла : 138 Мбайт
Продолжительность : 1 ч. 40 м.
Режим общего битрейта : Постоянный
Общий поток : 192 Кбит/сек

Аудио
Формат : AC-3
Формат/Информация : Audio Coding 3
Расширение режима : CM (complete main)
Параметр Endianness формата : Big
Продолжительность : 1 ч. 40 м.
Вид битрейта : Постоянный
Битрейт : 192 Кбит/сек
Каналы : 2 канала
Расположение каналов : Front: L R
Частота : 48,0 КГц
Битовая глубина : 16 бит
Метод сжатия : С потерями
Размер потока : 138 Мбайт (100%)

Общее
Полное имя : D:VideoBegushij chelovek.1987.BDRip.720pBegushij chelovek.1987.Original.eng.ac3
Формат : AC-3
Формат/Информация : Audio Coding 3
Размер файла : 323 Мбайт
Продолжительность : 1 ч. 40 м.
Режим общего битрейта : Постоянный
Общий поток : 448 Кбит/сек

Аудио
Формат : AC-3
Формат/Информация : Audio Coding 3
Расширение режима : CM (complete main)
Параметр Endianness формата : Big
Продолжительность : 1 ч. 40 м.
Вид битрейта : Постоянный
Битрейт : 448 Кбит/сек
Каналы : 6 каналов
Расположение каналов : Front: L C R, Side: L R, LFE
Частота : 48,0 КГц
Битовая глубина : 16 бит
Метод сжатия : С потерями
Размер потока : 323 Мбайт (100%)

Общее
Полное имя : D:VideoBegushij chelovek.1987.BDRip.720pBegushij chelovek.1987.rus.вариант 1.srt
Формат : SubRip
Размер файла : 80,6 Кбайт

Текст
Формат : SubRip
Метод сжатия : Без потерь

Общее
Полное имя : D:VideoBegushij chelovek.1987.BDRip.720pBegushij chelovek.1987.rus.вариант 2.srt
Формат : SubRip
Размер файла : 75,4 Кбайт

Текст
Формат : SubRip
Метод сжатия : Без потерь

---[Information] [13.07.2014 10:45:15] raw [info]: 1280x720p 1:1 @ 24000/1001 fps (cfr)
---[Information] [13.07.2014 10:45:15] x264 [info]: using SAR=1/1
---[Information] [13.07.2014 10:45:15] x264 [info]: using cpu capabilities: MMX2 SSE2Fast SSSE3 SSE4.2
---[Information] [13.07.2014 10:45:15] x264 [info]: profile High, level 4.1
---[Information] [13.07.2014 21:44:43] x264 [info]: frame I:1179 Avg QP:17.16 size: 88865
---[Information] [13.07.2014 21:44:43] x264 [info]: frame P:32655 Avg QP:18.06 size: 46308
---[Information] [13.07.2014 21:44:43] x264 [info]: frame B:111060 Avg QP:20.42 size: 21910
---[Information] [13.07.2014 21:44:43] x264 [info]: consecutive B-frames: 2.8% 2.9% 9.3% 17.6% 16.3% 44.6% 6.6%
---[Information] [13.07.2014 21:44:43] x264 [info]: mb I I16..4: 3.8% 88.5% 7.7%
---[Information] [13.07.2014 21:44:43] x264 [info]: mb P I16..4: 1.6% 29.5% 1.4% P16..4: 34.8% 22.3% 9.7% 0.0% 0.0% skip: 0.6%
---[Information] [13.07.2014 21:44:43] x264 [info]: mb B I16..4: 0.2% 2.7% 0.1% B16..8: 46.0% 15.8% 3.1% direct:10.5% skip:21.5% L0:48.8% L1:44.6% BI: 6.6%
---[Information] [13.07.2014 21:44:43] x264 [info]: 8x8 transform intra:90.3% inter:72.2%
---[Information] [13.07.2014 21:44:43] x264 [info]: coded y,uvDC,uvAC intra: 91.8% 93.0% 74.6% inter: 41.0% 46.5% 10.2%
---[Information] [13.07.2014 21:44:43] x264 [info]: i16 v,h,dc,p: 32% 14% 14% 40%
---[Information] [13.07.2014 21:44:43] x264 [info]: i8 v,h,dc,ddl,ddr,vr,hd,vl,hu: 8% 7% 9% 10% 13% 14% 12% 13% 13%
---[Information] [13.07.2014 21:44:43] x264 [info]: i4 v,h,dc,ddl,ddr,vr,hd,vl,hu: 11% 6% 2% 10% 15% 16% 14% 13% 12%
---[Information] [13.07.2014 21:44:43] x264 [info]: i8c dc,h,v,p: 46% 19% 17% 18%
---[Information] [13.07.2014 21:44:43] x264 [info]: Weighted P-Frames: Y:7.5% UV:4.9%
---[Information] [13.07.2014 21:44:43] x264 [info]: ref P L0: 39.8% 7.7% 19.4% 8.7% 7.5% 5.5% 5.0% 3.0% 2.9% 0.6% 0.0%
---[Information] [13.07.2014 21:44:43] x264 [info]: ref B L0: 61.1% 15.7% 8.9% 5.0% 3.7% 3.2% 1.7% 0.6%
---[Information] [13.07.2014 21:44:43] x264 [info]: ref B L1: 89.3% 10.7%
---[Information] [13.07.2014 21:44:43] x264 [info]: kb/s:5361.66
---[Information] [13.07.2014 21:44:43] encoded 144894 frames, 3.66 fps, 5361.66 kb/s
--[Information] [13.07.2014 21:44:51] Final statistics
---[Information] [13.07.2014 21:44:51] Constant Quality Mode: Quality 19 computed...
---[Information] [13.07.2014 21:44:51] Video Bitrate Obtained (approximate): 5363 kbit/s
--[Information] [13.07.2014 21:44:51] MediaInfo
---[Information] [13.07.2014 21:44:51] File: D:RipBegushij chelovek.1987.BDRipBegushij chelovek.1987.BDRip.720p.mkv


Правила, инструкции, FAQ!!!
Торрент  Добавлен [10 мар 2018, 17:08] Скачать торрент Магнет ссылка
Скачать торрент
[ Размер 41.06 КБ / Просмотров 140 ]

Статус
Проверен 
 
Размер  7.76 ГБ
Приватный: Нет (DHT включён)
.torrent скачан  0
Как залить торрент? | Как скачать Torrent? | Ошибка в торренте? Качайте магнет  


     Отправить личное сообщение
   
Страница 1 из 1
Показать сообщения за:  Поле сортировки  
Начать новую тему Ответить на тему

   Похожие торренты   Автор   Ответы   Просмотры   Последнее сообщение 
В этой теме нет новых непрочитанных сообщений. Скачать торрент Проверен Бегущий человек / The Running Man (1987) BDRip | A

в форуме Фантастика, Фэнтези, Размер: 1.48 ГБ, Здоровье: 100%

Гость

0
27|2

490
40

21 фев 2016, 14:28

Гость Перейти к последнему сообщению

В этой теме нет новых непрочитанных сообщений. Скачать торрент Бегущий Человек / Running man (Корея, вып.140-149) HDTVRip [H.264/720p] [KOR]

в форуме Видео для смартфонов и КПК, Размер: 12.33 ГБ, Здоровье: 100%

Гость

0
72|19

1510
5

15 сен 2013, 01:36

Гость Перейти к последнему сообщению

В этой теме нет новых непрочитанных сообщений. Скачать торрент Проверен Команда 49: Огненная лестница / Ladder 49 (2004) BDRip 720p by msltel | D, A

в форуме 720p | 1080p, Размер: 5.23 ГБ, Здоровье: 100%

Гость

0
1|0

37
0

06 апр 2018, 23:46

Гость Перейти к последнему сообщению

В этой теме нет новых непрочитанных сообщений. Скачать торрент Проверен Билли Мэдисон / Billy Madison (1995) BDRip 720p by msltel

в форуме 720p | 1080p, Размер: 3.7 ГБ, Здоровье: 100%

Гость

0
59|3

119
11

16 ноя 2015, 00:04

Гость Перейти к последнему сообщению

В этой теме нет новых непрочитанных сообщений. Скачать торрент Проверен Бегущий в лабиринте / The Maze Runner (2014) BDRip 720p | Чистый звук

в форуме 720p | 1080p, Размер: 5.07 ГБ, Здоровье: 100%

Гость

0
68|0

108
1

01 дек 2014, 12:44

Гость Перейти к последнему сообщению



Сейчас этот форум просматривают: нет зарегистрированных пользователей и гости: 0


Вы не можете начинать темы
Вы не можете отвечать на сообщения
Вы не можете редактировать свои сообщения
Вы не можете удалять свои сообщения
Вы не можете добавлять вложения

Перейти:  
Ресурс не предоставляет электронные версии произведений, а занимается лишь коллекционированием и каталогизацией ссылок, присылаемых и публикуемых на форуме нашими читателями. Если вы являетесь правообладателем какого-либо представленного материала и не желаете чтобы ссылка на него находилась в нашем каталоге, свяжитесь с нами и мы незамедлительно удалим её. Файлы для обмена на трекере предоставлены пользователями сайта, и администрация не несёт ответственности за их содержание. Просьба не заливать файлы, защищенные авторскими правами, а также файлы нелегального содержания!
cron