На всех торрентах на трекере установлена скидка на скачивание в размере 100 процентов(а).
 Возможность скачивания торрента НЕ зависит от ограничений при низком ратио, низком аплоаде, требуемом ратио или требуемом аплоаде.


Начать новую тему Ответить на тему
Статистика раздачи
Размер: 13.69 ГБ | Добавлен: 27 дек 2013, 09:30 | Скачали: 0
Сидеров: 25  [0 байт/сек]    Личеров: 5  [0 байт/сек]
Пред. тема | След. тема 

Автор
Сообщение

СообщениеДобавлено: 27 дек 2013, 09:30 

Ответить с цитатой 

Аватар легенда о Корре / Legend of Korra Book 2 (2013) WEB-DL [H.264/1080p-LQ] (Сезон 2, 1-14 серии из 14 )

Год выпуска: 2013
Жанр: Приключения

Язык: Русский,Английский

Описание:
Никелодеон приглашает нас в новое захватывающее путешествие по миру "Аватар". Нас ждут новые герои, новые декорации, новые приключения. А так же мы продолжаем наблюдать за полюбившимися героями и их отношениями. Давно знакомая вселенная заиграет и засветится пред нами совершенно новыми и неожиданными красками. Откроет свои двери невероятный и загадочный мир духов и пред нами предстанет самый первый Аватар. Кто он? Что произошло в те далёкие времена? Почему мир духов и мир людей стали так близки друг к другу? На все эти вопросы вы получите ответ посмотрев 2 книгу "Духи".



Режиссер: Хоаким Дос Сантос, Ки Хьюн Рю.
Персонажи: Джанет Вэрни, Дж.К. Симмонс, Ди Брэдли Бейкер, Мария Бэмфорд, Кирнан Шипка, Дарси Роуз Бернс, Лэнс Хенриксен, П.Дж. Бирн, Дэвид Фаустино, Данте Баско

Продолжительность: ~00:22:00 Серия
Качество видео: WEB-DL
Перевод: Любительский многоголосый закадровый (Flux-Team)

Видеокодек: MPEG-4 AVC/H.264
Битрейт видео: ~5339 kb/s
Размер кадра: 1912х1072
Аудио 1 Русский AC-3 6 ch 384 kb/s (Flux-Team)
Аудио 2 Английский AC3 6 ch 384 kb/s

Сэмпл: Ссылка
Общее
Уникальный идентификатор : 239335875456840286794153936524228385277 (0xB40E69B5D6004A6D88A75A9C2F7F59FD)
Полное имя : Z:Аватар легенда о Корре_S02E01_The.Legend.of.Korra_Бунтарский Дух_1080p.WEB-DL.DD5.1.H.264.mkv
Формат : Matroska
Версия формата : Version 4 / Version 2
Размер файла : 1,04 Гбайт
Продолжительность : 23 м.
Общий поток : 6231 Кбит/сек
Дата кодирования : UTC 2013-09-16 08:32:34
Программа кодирования : mkvmerge v6.3.0 ('You can't stop me!') built on Jun 28 2013 20:09:41
Библиотека кодирования : libebml v1.3.0 + libmatroska v1.4.0

Видео
Идентификатор : 1
Формат : AVC
Формат/Информация : Advanced Video Codec
Профиль формата :
Параметр CABAC формата : Да
Параметр ReFrames формата : 4 кадра
Идентификатор кодека : V_MPEG4/ISO/AVC
Продолжительность : 23 м.
Битрейт : 5339 Кбит/сек
Ширина : 1912 пикселей
Высота : 1072 пикселя
Соотношение сторон : 16:9
Частота кадров : 23,976 кадра/сек
Цветовое пространство : YUV
Субдискретизация насыщенности : 4:2:0
Битовая глубина : 8 бит
Тип развёртки : Прогрессивная
Бит/(Пиксели*Кадры) : 0.109
Размер потока : 911 Мбайт (86%)
Язык : English
Default : Да
Forced : Нет
Основные цвета : BT.709-5, BT.1361, IEC 61966-2-4, SMPTE RP177
Характеристики трансфера : BT.709-5, BT.1361
Коэффициенты матрицы : BT.709-5, BT.1361, IEC 61966-2-4 709, SMPTE RP177

Аудио #1
Идентификатор : 2
Формат : AC-3
Формат/Информация : Audio Coding 3
Расширение режима : CM (complete main)
Параметр Endianness формата : Big
Идентификатор кодека : A_AC3
Продолжительность : 23 м.
Вид битрейта : Постоянный
Битрейт : 384 Кбит/сек
Каналы : 6 каналов
Расположение каналов : Front: L C R, Side: L R, LFE
Частота : 48,0 КГц
Битовая глубина : 16 бит
Метод сжатия : С потерями
Задержка видео : 10 мс.
Размер потока : 65,5 Мбайт (6%)
Заголовок : AC-3 6 ch @ 384 kbps - Rus (Flux-Team)
Язык : Russian
Default : Да
Forced : Нет

Аудио #2
Идентификатор : 3
Формат : AC-3
Формат/Информация : Audio Coding 3
Расширение режима : CM (complete main)
Параметр Endianness формата : Big
Идентификатор кодека : A_AC3
Продолжительность : 23 м.
Вид битрейта : Постоянный
Битрейт : 384 Кбит/сек
Каналы : 6 каналов
Расположение каналов : Front: L C R, Side: L R, LFE
Частота : 48,0 КГц
Битовая глубина : 16 бит
Метод сжатия : С потерями
Задержка видео : 10 мс.
Размер потока : 65,5 Мбайт (6%)
Язык : English
Default : Нет
Forced : Нет
1. Бунтарский Дух
2. Южное сияние
3. Гражданская война Часть 1
4. Гражданская война Часть 2
5. Миротворцы
6. Жало
7. Истоки. Часть 1
8. Истоки. Часть 2
9. Проводник
10. Новый Духовный Век
11. Ночь из тысячи звезд
12. Гармоническое Сближение
13. Тьма Надвигается
14. Свет во Тьме
Внимание! Раздача ведётся путём добавления новых серий; при каждом добавлении создётся новый торрент. Чтобы начать докачку новой серии, пользователям необходимо сделать следующее:
(1) остановить скачивание,
(2) удалить старый торрент у себя из клиента (старые серии удалять не надо),
(3) скачать новый торрент и запустить его у себя в клиенте вместо старого, при этом указать клиенту путь в старую папку куда и должно происходить скачивание новых серий.
Ваш клиент при этом должен произвести хеширование (проверку) старой папки (если не производит сам - помогите ему сделать это), и будет докачивать только те серии которых у вас ещё нет. Старые серии при этом не удаляются, а продолжают раздаваться!
Eсли вы уже удалили старые серии, то предотвратить повторную закачку старых серий можно, отжав галочку в соответсвующих местах при запуске нового торрента. По возможности, желательно не удалять старые серии как можно дольше чтобы релизёр не столько продолжал раздавать старые серии, а смог сконцентрироваться на новых.
Раздача обновлена добавлена 14 серия 23.11.13


Скриншоты:


Правила, инструкции, FAQ!!!
Торрент  Добавлен [27 дек 2013, 09:30] Скачать торрент Магнет ссылка
Скачать торрент
[ Размер 37.64 КБ / Просмотров 40 ]

Статус  
 
Размер  13.69 ГБ
Приватный: Нет (DHT включён)
.torrent скачан  0
Как залить торрент? | Как скачать Torrent? | Ошибка в торренте? Качайте магнет  
загрузка...


     Отправить личное сообщение
   
Страница 1 из 1
Показать сообщения за:  Поле сортировки  
Начать новую тему Ответить на тему

   Похожие торренты   Автор   Ответы   Просмотры   Последнее сообщение 
В этой теме нет новых непрочитанных сообщений. Скачать торрент Аватар: Легенда о Корре / The Last Airbender: The Legend of Korra [1 сезон: 1-12 серия из 12] (2012) WEB-DLRip [Обновляемая]

в форуме Зарубежные мультфильмы, Размер: 4.58 ГБ, Здоровье: 100%

Anonymous

0
58|15

94
39

27 дек 2013, 09:35

Anonymous Перейти к последнему сообщению

В этой теме нет новых непрочитанных сообщений. Скачать торрент Проверен Аватар: Легенда о Корре / The Last Airbender: The Legend of Korra [S01-04] (2012-2014) BDRip | D

в форуме Зарубежные мультфильмы, Размер: 14.29 ГБ, Здоровье: 100%

Гость

0
50|47

334
20

05 апр 2015, 23:27

Гость Перейти к последнему сообщению

В этой теме нет новых непрочитанных сообщений. Скачать торрент Проверен Аватар: Легенда о Корре / The Last Airbender: The Legend of Korra [S01-04] (2012-2014) BDRip 720p | D

в форуме Зарубежные мультфильмы (HD Video), Размер: 27.71 ГБ, Здоровье: 100%

Anonymous

0
93|73

495
33

05 апр 2015, 23:24

Anonymous Перейти к последнему сообщению

В этой теме нет новых непрочитанных сообщений. Скачать торрент Проверен Легенда о Костоломе / Легенда о Костяном Драконе / Легенда о Костобое / Legend of the Boneknapper Dragon (2010) BDRip

в форуме Зарубежные мультфильмы, Размер: 451.83 МБ, Здоровье: 100%

Anonymous

0
25|2

396
33

06 ноя 2014, 17:19

Anonymous Перейти к последнему сообщению

В этой теме нет новых непрочитанных сообщений. Скачать торрент Проверен Покойо / Pocoyo (2005-2009) SATRip (1 сезон: 1-52 серии, 2 сезон: 1- 52 серии из 104) [Обновляемая]

в форуме Развивающее Видео для детей, Размер: 9.33 ГБ, Здоровье: 100%

Гость

0
355|173

1454
20

01 дек 2015, 00:15

Гость Перейти к последнему сообщению



Сейчас этот форум просматривают: нет зарегистрированных пользователей и гости: 1


Вы не можете начинать темы
Вы не можете отвечать на сообщения
Вы не можете редактировать свои сообщения
Вы не можете удалять свои сообщения
Вы не можете добавлять вложения

Перейти:  
Ресурс не предоставляет электронные версии произведений, а занимается лишь коллекционированием и каталогизацией ссылок, присылаемых и публикуемых на форуме нашими читателями. Если вы являетесь правообладателем какого-либо представленного материала и не желаете чтобы ссылка на него находилась в нашем каталоге, свяжитесь с нами и мы незамедлительно удалим её. Файлы для обмена на трекере предоставлены пользователями сайта, и администрация не несёт ответственности за их содержание. Просьба не заливать файлы, защищенные авторскими правами, а также файлы нелегального содержания!
cron