На всех торрентах на трекере установлена скидка на скачивание в размере 100 процентов(а).
 Возможность скачивания торрента НЕ зависит от ограничений при низком ратио, низком аплоаде, требуемом ратио или требуемом аплоаде.


Начать новую тему Ответить на тему
Статистика раздачи
Размер: 745.37 МБ | Добавлен: 05 окт 2018, 20:53 | Скачали: 0
Сидеров: 208  [0 байт/сек]    Личеров: 64  [0 байт/сек]
Пред. тема | След. тема 

Автор
Сообщение

СообщениеДобавлено: 05 окт 2018, 20:53 

Ответить с цитатой 

Анон / Anon
Год выхода: 2018
Выпущено: Германия, США
Жанр: фантастика, триллер
Продолжительность: 01:35:45
Перевод: Профессиональный (полное дублирование) | iTunes
Субтитры: нет
Оригинальная аудиодорожка: нет
Режиссер: Эндрю Никкол / Andrew Niccol
В ролях: Клайв Оуэн (Sal Frieland), Аманда Сайфред (Anon), Колм Фиор (Charles Gattis), Джо Пинг (Lester Hagen), Марк О’Брайэн (Cyrus Frear), Иддо Голдберг (Josef Kenik), Конрад Коутс (Detective Fuchs), Мэйко Нгуйен (Detective Dyer), Соня Уолгер (Kristen), Элисон Бэт (Krystal), Сара Митич (Shirley)
О фильме: Идеальное общество будущего: режим тотального надзора, отсутствие личной жизни, приватных территорий и гражданских прав. Казалось бы, в полностью контролируемом государстве нет места ошибкам и правонарушениям. Но однажды детектив Сол Фриленд знакомится с девушкой, которая не числится в базах данных. Перед копом приоткрывается дверь преступного мира новой эры…
Качество: WEB-DLRip
Формат: AVI
Видео: 688x368 (1.87:1), 25 fps, XviD build 73 ~950 kbps avg, 0.15 bit/pixel
Аудио: 48 kHz, MPEG Layer 3, 2 ch, ~128.00 kbps avg
Сэмпл[/spoiler]
Код:
Код:
Format                      : AVI
Format/Info                 : Audio Video Interleave
File size                   : 745 MiB
Duration                    : 1 h 35 min
Overall bit rate            : 1 088 kb/s
Writing application         : VirtualDubMod 1.5.10.3 | www.virtualdub-fr.org || (build 2550/release)
Writing library             : VirtualDubMod build 2550/release
Video
ID                          : 0
Format                      : MPEG-4 Visual
Format profile              : Advanced Simple@L5
Format settings             : BVOP1
Format settings, BVOP       : 1
Format settings, QPel       : No
Format settings, GMC        : No warppoints
Format settings, Matrix     : Default (H.263)
Codec ID                    : XVID
Codec ID/Hint               : XviD
Duration                    : 1 h 35 min
Bit rate                    : 951 kb/s
Width                       : 688 pixels
Height                      : 368 pixels
Display aspect ratio        : 1.85:1
Frame rate                  : 25.000 FPS
Color space                 : YUV
Chroma subsampling          : 4:2:0
Bit depth                   : 8 bits
Scan type                   : Progressive
Compression mode            : Lossy
Bits/(Pixel*Frame)          : 0.150
Stream size                 : 651 MiB (87%)
Writing library             : XviD 73
Audio
ID                          : 1
Format                      : MPEG Audio
Format version              : Version 1
Format profile              : Layer 3
Codec ID                    : 55
Codec ID/Hint               : MP3
Duration                    : 1 h 35 min
Bit rate mode               : Constant
Bit rate                    : 128 kb/s
Channel(s)                  : 2 channels
Sampling rate               : 48.0 kHz
Frame rate                  : 41.667 FPS (1152 SPF)
Compression mode            : Lossy
Stream size                 : 87.7 MiB (12%)
Alignment                   : Aligned on interleaves
Interleave, duration        : 40  ms (1.00 video frame)
Interleave, preload duratio : 504  ms
Writing library             : LAME3.99r
Encoding settings           : -m s -V 4 -q 2 -lowpass 17 -b 128

загрузка...
Правила, инструкции, FAQ!!!
Торрент  Добавлен [05 окт 2018, 20:53] Скачать торрент Магнет ссылка
Скачать торрент
[ Размер 15.06 КБ / Просмотров 8 ]

Статус
Проверен 
 
Размер  745.37 МБ
Приватный: Нет (DHT включён)
.torrent скачан  0
Как залить торрент? | Как скачать Torrent? | Ошибка в торренте? Качайте магнет  


     Отправить личное сообщение
   
Страница 1 из 1
Показать сообщения за:  Поле сортировки  
Начать новую тему Ответить на тему

   Похожие торренты   Автор   Ответы   Просмотры   Последнее сообщение 
В этой теме нет новых непрочитанных сообщений. Скачать торрент Проверен Анон / Anon (Эндрю Никкол / Andrew Niccol) [2018, США, фантастика, триллер, WEB-DLRip] [Локализованный видеоряд] Dub

в форуме Фантастика, Фэнтези, Размер: 1.46 ГБ, Здоровье: 100%

Anonymous

0
35|11

8
0

05 окт 2018, 20:51

Anonymous Перейти к последнему сообщению

В этой теме нет новых непрочитанных сообщений. Скачать торрент Проверен Анон / Anon (Эндрю Никкол / Andrew Niccol) [2018, Германия, США, фантастика, триллер, WEB-DLRip-AVC] MVO

в форуме Фантастика, Фэнтези, Размер: 745.43 МБ, Здоровье: 100%

Anonymous

0
35|11

6
0

05 окт 2018, 20:07

Anonymous Перейти к последнему сообщению

В этой теме нет новых непрочитанных сообщений. Скачать торрент Проверен Анон / Anon (Эндрю Никкол / Andrew Niccol) [2018, США, фантастика, триллер, WEB-DLRip] Dub + Sub (Rus, Eng) + Original Eng

в форуме Фантастика, Фэнтези, Размер: 2.19 ГБ, Здоровье: 100%

Anonymous

0
1|0

6
0

05 окт 2018, 20:19

Anonymous Перейти к последнему сообщению

В этой теме нет новых непрочитанных сообщений. Скачать торрент Проверен [iPad] Гаттака / Gattaca (Эндрю Никкол / Andrew Niccol) [1997, фантастика, триллер, BDRip, 1024x] (DUB | MVO | AVO | Original)

в форуме Фильмы для iPod, iPhone, iPad, Размер: 2.45 ГБ, Здоровье: 100%

Anonymous

0
62|12

147
3

14 май 2015, 00:03

Anonymous Перейти к последнему сообщению

В этой теме нет новых непрочитанных сообщений. Скачать торрент Проверен [iPad] Гостья / The Host (Эндрю Никкол/ Andrew Niccol) [2013, США, Фантастика, боевик, триллер, HDRip, 576p] Dub + Original

в форуме Фильмы для iPod, iPhone, iPad, Размер: 2.16 ГБ, Здоровье: 100%

Anonymous

0
4|0

48
1

24 дек 2017, 22:53

Anonymous Перейти к последнему сообщению



Сейчас этот форум просматривают: нет зарегистрированных пользователей и гости: 0


Вы не можете начинать темы
Вы не можете отвечать на сообщения
Вы не можете редактировать свои сообщения
Вы не можете удалять свои сообщения
Вы не можете добавлять вложения

Перейти:  
Ресурс не предоставляет электронные версии произведений, а занимается лишь коллекционированием и каталогизацией ссылок, присылаемых и публикуемых на форуме нашими читателями. Если вы являетесь правообладателем какого-либо представленного материала и не желаете чтобы ссылка на него находилась в нашем каталоге, свяжитесь с нами и мы незамедлительно удалим её. Файлы для обмена на трекере предоставлены пользователями сайта, и администрация не несёт ответственности за их содержание. Просьба не заливать файлы, защищенные авторскими правами, а также файлы нелегального содержания!
cron