На всех торрентах на трекере установлена скидка на скачивание в размере 100 процентов(а).
 Возможность скачивания торрента НЕ зависит от ограничений при низком ратио, низком аплоаде, требуемом ратио или требуемом аплоаде.


Начать новую тему Ответить на тему
Статистика раздачи
Размер: 284.09 МБ | Добавлен: 30 июл 2016, 10:12 | Скачали: 1
Сидеров: 18  [0 байт/сек]    Личеров: 8  [0 байт/сек]
Пред. тема | След. тема 

Автор
Сообщение

СообщениеДобавлено: 30 июл 2016, 10:12 

Ответить с цитатой 

Год: 1992
Жанр: Heavy Metal, Instrumental, Shred
Издание: Lakeside Music - LAKE 3050
Продолжительность: 0:42:40

Кодек: FLAC
Битрейт: Lossless
Тип рипа: image + .cue

Треклист:
01. Corrida (4:57)
02. Love In Her Eyes (5:21)
03. French Blues (4:37)
04. The Storm (3:10)
05. White Lady (5:30)
06. Hymne (United Europe) (5:23)
07. Last Encounters (4:04)
08. 1001 Nights (6:30)
09. Summer Of '89 (2:58)
Код:
Код:
Exact Audio Copy V0.99 prebeta 5 from 4. May 2009

Отчёт EAC об извлечении, выполненном 11. октября 2010, 9:44

Angi Schiliro / White Lady [APCY-8085]

Дисковод: Optiarc DVD RW AD-7200A   Adapter: 1  ID: 0

Режим чтения                 : Достоверность
Использование точного потока : Да
Отключение кэша аудио        : Да
Использование указателей C2  : Нет

Коррекция смещения при чтении                     : 48
Способность читать области Lead-in и Lead-out     : Нет
Заполнение пропущенных сэмплов тишиной            : Да
Удаление блоков с тишиной в начале и конце        : Нет
При вычислениях CRC использовались нулевые сэмплы : Да
Интерфейс                                         : Встроенный Win32-интерфейс для Win NT/2000

Выходной формат          : Пользовательский кодировщик
Выбранный битрейт        : 128 kBit/s
Качество                 : Высокий
Добавление ID3-тэга      : Нет
Утилита сжатия           : C:\Program Files\Exact Audio Copy\Flac\flac.exe
Дополнительные параметры : -8 -V -T "artist=%a" -T "title=%t" -T "album=%g" -T "date=%y" -T "tracknumber=%n" -T "genre=%m" -T "comment=EAC

TOC извлечённого CD

     Трек |   Старт  | Длительность | Начальный сектор | Конечный сектор
    ---------------------------------------------------------------------
       1  |  0:00.37 |    4:55.30   |          37      |      22191
       2  |  4:55.67 |    5:23.53   |       22192      |      46469
       3  | 10:19.45 |    4:37.55   |       46470      |      67299
       4  | 14:57.25 |    3:10.27   |       67300      |      81576
       5  | 18:07.52 |    5:31.23   |       81577      |     106424
       6  | 23:39.00 |    5:23.35   |      106425      |     130684
       7  | 29:02.35 |    4:04.22   |      130685      |     149006
       8  | 33:06.57 |    6:33.18   |      149007      |     178499
       9  | 39:40.00 |    3:00.47   |      178500      |     192046

Характеристики диапазона извлечения и сообщения об ошибках

Выбранный диапазон

     Имя файла Y:\Музыка\Angi Schiliro\1992 White Lady\Angi Schiliro - White Lady [APCY-8085].wav

     Пиковый уровень 100.0 %
     Качество диапазона 100.0 %
     CRC копии 2CC49876
     Копирование... OK

Ошибок не произошло

AccurateRip: сводка

Трек  1  нет в базе данных
Трек  2  нет в базе данных
Трек  3  нет в базе данных
Трек  4  нет в базе данных
Трек  5  нет в базе данных
Трек  6  нет в базе данных
Трек  7  нет в базе данных
Трек  8  нет в базе данных
Трек  9  нет в базе данных

Ни одного трека нет в базе AccurateRip

Конец отчёта
Код:
Код:
REM GENRE "Heavy Metal/Shred"
REM DATE 1992
REM DISCID 8A0A0009
REM COMMENT "ExactAudioCopy v0.99pb5"
PERFORMER "Angi Schiliro"
TITLE "White Lady [APCY-8085]"
FILE "Angi Schiliro - White Lady [APCY-8085].flac" WAVE
  TRACK 01 AUDIO
    TITLE "Corrida"
    PERFORMER "Angi Schiliro"
    INDEX 00 00:00:00
    INDEX 01 00:00:37
  TRACK 02 AUDIO
    TITLE "Love In Her Eyes"
    PERFORMER "Angi Schiliro"
    INDEX 01 04:55:67
  TRACK 03 AUDIO
    TITLE "French Blues"
    PERFORMER "Angi Schiliro"
    INDEX 00 10:17:56
    INDEX 01 10:19:45
  TRACK 04 AUDIO
    TITLE "The Storm"
    PERFORMER "Angi Schiliro"
    INDEX 01 14:57:25
  TRACK 05 AUDIO
    TITLE "White Lady"
    PERFORMER "Angi Schiliro"
    INDEX 00 18:06:31
    INDEX 01 18:07:52
  TRACK 06 AUDIO
    TITLE "Hymn (United Europe)"
    PERFORMER "Angi Schiliro"
    INDEX 00 23:37:18
    INDEX 01 23:39:00
  TRACK 07 AUDIO
    TITLE "Last Encounters"
    PERFORMER "Angi Schiliro"
    INDEX 00 29:00:58
    INDEX 01 29:02:35
  TRACK 08 AUDIO
    TITLE "1001 Nights"
    PERFORMER "Angi Schiliro"
    INDEX 00 33:04:61
    INDEX 01 33:06:57
  TRACK 09 AUDIO
    TITLE "Summer Of '89"
    PERFORMER "Angi Schiliro"
    INDEX 00 39:39:16
    INDEX 01 39:40:00
Код:
Код:
-----------------------

DON'T MODIFY THIS FILE

-----------------------

PERFORMER: auCDtect Task Manager, ver. 1.6.0 RC1 build 1.6.0.1
Copyright (c) 2008-2010 y-soft. All rights reserved
http:/y-soft.org

ANALYZER: auCDtect: CD records authenticity detector, version 0.8.2
Copyright (c) 2004 Oleg Berngardt. All rights reserved.
Copyright (c) 2004 Alexander Djourik. All rights reserved.

FILE: Angi Schiliro - White Lady [APCY-8085].flac
  Size: 294142896 Hash: 17B94A9F6AB2D0134D5BD198D1F8CAB0 Accuracy: -m0
  Conclusion: CDDA 100%
  Signature: 041F7EAA0D14D24C3853CEE9825B657FA133ECB9
#777
загрузка...
Правила, инструкции, FAQ!!!
Торрент  Добавлен [30 июл 2016, 10:12] Скачать торрент Магнет ссылка
Скачать торрент
[ Размер 12.43 КБ / Просмотров 27 ]

Статус
Проверен 
 
Размер  284.09 МБ
Приватный: Нет (DHT включён)
.torrent скачан  1
Как залить торрент? | Как скачать Torrent? | Ошибка в торренте? Качайте магнет  


     Отправить личное сообщение
   
Страница 1 из 1
Показать сообщения за:  Поле сортировки  
Начать новую тему Ответить на тему

   Похожие торренты   Автор   Ответы   Просмотры   Последнее сообщение 
В этой теме нет новых непрочитанных сообщений. Скачать торрент Проверен (Heavy Metal) Mercyful Fate / In the Shadows (1st press Japan 1993) - 1993, FLAC (image+.cue), lossless

в форуме Heavy, Power, Progressive (Metal), Размер: 416.97 МБ, Здоровье: 100%

Anonymous

0
1|0

79
0

11 окт 2016, 01:03

Anonymous Перейти к последнему сообщению

В этой теме нет новых непрочитанных сообщений. Скачать торрент Проверен (Heavy Metal) Motorhead - Bastards (Japan TECX-25664) - 1993 (press 1994), FLAC (image+.cue), lossless

в форуме Heavy, Power, Progressive (Metal), Размер: 396.39 МБ, Здоровье: 100%

Anonymous

0
2|0

77
0

11 окт 2016, 01:35

Anonymous Перейти к последнему сообщению

В этой теме нет новых непрочитанных сообщений. Скачать торрент Проверен (Power/Heavy Metal) Axxis - 'The Big Thrill' ( Japan CD 1st Press Toshiba-EMI TOCP-7786 ) - 1993, FLAC (image+.cue), lossless

в форуме Heavy, Power, Progressive (Metal), Размер: 414.41 МБ, Здоровье: 100%

Anonymous

0
3|1

57
0

11 окт 2016, 22:08

Anonymous Перейти к последнему сообщению

В этой теме нет новых непрочитанных сообщений. Скачать торрент Проверен (Shred/Heavy Metal) [16/44.1] [LP] Cacophony - Speed Metal Symphony - 1987 (US Press SH-1031), FLAC (image+.cue)

в форуме Зарубежный рок (оцифровки), Размер: 309.56 МБ, Здоровье: 0%

Anonymous

0
0|0

64
0

24 авг 2016, 12:19

Anonymous Перейти к последнему сообщению

В этой теме нет новых непрочитанных сообщений. Скачать торрент Проверен (Heavy Metal/Shred) Cacophony - Speed Metal Symphony (Japan, MP28-5322, 1989) - 1987, FLAC (image+.cue), lossless

в форуме Heavy, Power, Progressive (Metal), Размер: 289.18 МБ, Здоровье: 100%

Anonymous

0
1|0

56
0

12 окт 2016, 00:05

Anonymous Перейти к последнему сообщению



Сейчас этот форум просматривают: нет зарегистрированных пользователей и гости: 0


Вы не можете начинать темы
Вы не можете отвечать на сообщения
Вы не можете редактировать свои сообщения
Вы не можете удалять свои сообщения
Вы не можете добавлять вложения

Перейти:  
Ресурс не предоставляет электронные версии произведений, а занимается лишь коллекционированием и каталогизацией ссылок, присылаемых и публикуемых на форуме нашими читателями. Если вы являетесь правообладателем какого-либо представленного материала и не желаете чтобы ссылка на него находилась в нашем каталоге, свяжитесь с нами и мы незамедлительно удалим её. Файлы для обмена на трекере предоставлены пользователями сайта, и администрация не несёт ответственности за их содержание. Просьба не заливать файлы, защищенные авторскими правами, а также файлы нелегального содержания!
cron