На всех торрентах на трекере установлена скидка на скачивание в размере 100 процентов(а).
 Возможность скачивания торрента НЕ зависит от ограничений при низком ратио, низком аплоаде, требуемом ратио или требуемом аплоаде.


Начать новую тему Ответить на тему
Статистика раздачи
Размер: 6.12 ГБ | Добавлен: 18 янв 2014, 16:48 | Скачали: 23
Сидеров: 45  [0 байт/сек]    Личеров: 14  [0 байт/сек]
Пред. тема | След. тема 

Автор
Сообщение

СообщениеДобавлено: 18 янв 2014, 16:48 

Ответить с цитатой 

Aerosmith - Live At Monsters Of Rock Brasil


Жанр: Hard Rock
Продолжительность: 02:01:00
Год выпуска: 2013

Описание:
01 - Back In The Saddle
02 - Love In An Elevator
03 - Toys In The Attic
04 - Oh Yeah
05 - Pink
06 - Dude (Looks Like A Lady)
07 - Rag Doll
08 - Cryin'
09 - Last Child
10 - Jaded
11 - Boogie Man
12 - Combination
13 - Eat The Rich (with snippet of Whole Lotta Love, Led Zeppelin cover)
14 - What It Takes
15 - Livin' On The Edge
16 - I Don't Want To Miss A Thing
17 - No More No More
18 - Come Together (The Beatles cover)
19 - Walk This Way (with snippet of Mother Popcorn, James Brown cover)
20 - Dream On
21 - Sweet Emotion


Доп. информация: Концерт проходивший в Бразилии 20 октября 2013 года.

Качество: HDTV 1080i
Контейнер: TS
Видео кодек: MPEG2
Аудио кодек: AC3
Видео: AVC, 1920 x 1080,6472 Кбит/сек, 29.970 fps
Аудио: AC-3,384 Кбит/сек,48,0 КГц, 6 каналов
Отчёт MediaInfo / BDInfo
Код:
Видео
Идентификатор                            : 1183 (0x49F)
Идентификатор меню                       : 542 (0x21E)
Формат                                   : AVC
Формат/Информация                        : Advanced Video Codec
Версия формата                           : Version 2
Профиль формата                          : High@L4.0
Параметр CABAC формата                   : Да
Параметр ReFrames формата                : 4 кадра
Идентификатор кодека                     : 27
Продолжительность                        : 2 ч. 1 м.
Битрейт                                  : 6472 Кбит/сек
Максимальный битрейт                     : 10,0 Мбит/сек
Ширина                                   : 1920 пикселей
Высота                                   : 1080 пикселей
Соотношение сторон                       : 16:9
Частота кадров                           : 29,970 кадров/сек
Цветовое пространство                    : YUV
Субдискретизация насыщенности            : 4:2:0
Битовая глубина                          : 8 бит
Тип развёртки                            : Чересстрочная
Порядок развёртки                        : Верхнее поле первое
Бит/(Пиксели*Кадры)                      : 0.104
Размер потока                            : 5,49 Гбайт (90%)
Язык                                     : aaa
Основные цвета                           : BT.709
Характеристики трансфера                 : BT.709
Коэффициенты матрицы                     : BT.709

Аудио
Идентификатор                            : 1182 (0x49E)
Идентификатор меню                       : 542 (0x21E)
Формат                                   : AC-3
Формат/Информация                        : Audio Coding 3
Расширение режима                        : CM (complete main)
Параметр Endianness формата              : Big
Идентификатор кодека                     : 6
Продолжительность                        : 2 ч. 1 м.
Вид битрейта                             : Постоянный
Битрейт                                  : 384 Кбит/сек
Максимальный битрейт                     : 395 Кбит/сек
Каналы                                   : 6 каналов
Расположение каналов                     : Front: L C R, Side: L R, LFE
Частота                                  : 48,0 КГц
Битовая глубина                          : 16 бит
Метод сжатия                             : С потерями
Задержка видео                           : -70 мс.
Размер потока                            : 334 Мбайт (5%)
Скриншоты
Правила, инструкции, FAQ!!!
Торрент  Добавлен [18 янв 2014, 16:48] Скачать торрент Магнет ссылка
Скачать торрент
[ Размер 15.82 КБ / Просмотров 31 ]

Статус  
 
Размер  6.12 ГБ
Приватный: Нет (DHT включён)
.torrent скачан  23
Как залить торрент? | Как скачать Torrent? | Ошибка в торренте? Качайте магнет  
загрузка...


     Отправить личное сообщение
   
Страница 1 из 1
Показать сообщения за:  Поле сортировки  
Начать новую тему Ответить на тему

   Похожие торренты   Автор   Ответы   Просмотры   Последнее сообщение 
В этой теме нет новых непрочитанных сообщений. Скачать торрент Проверен Ratt – Live At Monsters Of Rock Brasil [2013, Hard Rock, HDTV 1080i]

в форуме Концерты (HD-Video), Размер: 2.88 ГБ, Здоровье: 100%

Anonymous

0
9|3

34
0

23 окт 2016, 13:48

Anonymous Перейти к последнему сообщению

В этой теме нет новых непрочитанных сообщений. Скачать торрент Проверен Killswitch Engage - Live At Monsters Of Rock Brasil, October 19, 2013 - HD 1080i [2013, rock, HDTV 1080i]

в форуме Концерты (HD-Video), Размер: 3.97 ГБ, Здоровье: 100%

Anonymous

0
2|0

81
0

23 окт 2016, 13:36

Anonymous Перейти к последнему сообщению

В этой теме нет новых непрочитанных сообщений. Скачать торрент Проверен Limp Bizkit - Live At Monsters Of Rock Brasil, October 19, 2013 - HD 1080i [2013, rock, HDTV 1080i]

в форуме Концерты (HD-Video), Размер: 2.58 ГБ, Здоровье: 100%

Anonymous

0
6|4

71
0

23 окт 2016, 12:21

Anonymous Перейти к последнему сообщению

В этой теме нет новых непрочитанных сообщений. Скачать торрент Проверен Hatebreed - Live At Monsters Of Rock Brasil, October 19, 2013 - HD 1080i [2013, rock, HDTV 1080i]

в форуме Концерты (HD-Video), Размер: 3.24 ГБ, Здоровье: 100%

Anonymous

0
2|0

60
0

23 окт 2016, 12:24

Anonymous Перейти к последнему сообщению

В этой теме нет новых непрочитанных сообщений. Скачать торрент Проверен Slipknot - Live At Monsters Of Rock Brasil, October 19, 2013 [2013, rock, HDTV 1080i]

в форуме Концерты (HD-Video), Размер: 4.94 ГБ, Здоровье: 100%

Anonymous

0
70|14

121
33

03 май 2015, 22:13

Anonymous Перейти к последнему сообщению



Сейчас этот форум просматривают: нет зарегистрированных пользователей и гости: 0


Вы не можете начинать темы
Вы не можете отвечать на сообщения
Вы не можете редактировать свои сообщения
Вы не можете удалять свои сообщения
Вы не можете добавлять вложения

Перейти:  
Ресурс не предоставляет электронные версии произведений, а занимается лишь коллекционированием и каталогизацией ссылок, присылаемых и публикуемых на форуме нашими читателями. Если вы являетесь правообладателем какого-либо представленного материала и не желаете чтобы ссылка на него находилась в нашем каталоге, свяжитесь с нами и мы незамедлительно удалим её. Файлы для обмена на трекере предоставлены пользователями сайта, и администрация не несёт ответственности за их содержание. Просьба не заливать файлы, защищенные авторскими правами, а также файлы нелегального содержания!
cron