На всех торрентах на трекере установлена скидка на скачивание в размере 100 процентов(а).
 Возможность скачивания торрента НЕ зависит от ограничений при низком ратио, низком аплоаде, требуемом ратио или требуемом аплоаде.


Начать новую тему Ответить на тему
Статистика раздачи
Размер: 7.28 ГБ | Добавлен: 02 май 2018, 21:46 | Скачали: 93
Сидеров: 33  [0 байт/сек]    Личеров: 25  [0 байт/сек]
Пред. тема | След. тема 

Автор
Сообщение

СообщениеДобавлено: 02 май 2018, 21:46 

Ответить с цитатой 

Название: 8 миллиметров
Оригинальное название: 8MM
Год выхода: 1999
Жанр: Детектив, триллер
Режиссер: Джоэл Шумахер
В ролях: Николас Кейдж, Хоакин Феникс, Джеймс Гандольфини, Питер Стормаре, Кэтрин Кинер

О фильме:
После смерти почтенного отца семейства в его сейфе обнаружена 8-миллиметровая пленка с любительским фильмом: сексуальный садист зверски убивает 15-летнюю девушку. Вдова боится скандала, но хочет знать правду. Она нанимает частного детектива Тома Уэлса, поручив ему разобраться, снято ли на пленку реальное убийство или это омерзительная инсценировка. Поиски ответа на вопрос приводят Тома в мир порноиндустрии, где, по выражению одного из героев, "ты танцуешь с дьяволом, не подозревая, что дьявола изменить нельзя, а вот он вполне может переделать тебя".

Сценарий к фильму написал известный сценарист Эндрю Кевин Уокер ("Семь"), а постановщик Джоэл Шумахер ("Телефонная будка", "Охота на Веронику", "Призрак оперы") в одном из интервью определил тему картины как попытку погружения человека в самые глубины мрака. Главный герой в исполнении Николаса Кейджа стремится разобраться в истоках человеческого насилия.



Страна: США, Германия
Студия: Columbia Pictures Corporation
Продолжительность: 02:03:19
Перевод: Профессиональный (полное дублирование), Профессиональный (многоголосый, закадровый)

Файл
Кодек: x.264
Качество: BDRip 720p
Видео: MPEG-4 AVC, 6 102 Кбит/с, 1280x544
Звук #1: AC3, 6 ch, 448 Кбит/с | Dub
Звук #2: AC3, 6 ch, 384 Кбит/с | MVO
Звук #3: DTS, 6 ch, 1536 Кбит/с | Eng
Субтитры: Русские, английские





Format : Matroska
Format version : Version 2
File size : 7.28 GiB
Duration : 2h 3mn
Overall bit rate : 8 445 Kbps
Movie name : 8MM.1999.BDRip.720p
Attachment : Yes

Video
ID : 1
Format : AVC
Format/Info : Advanced Video Codec
Format profile : High@L4.1
Format settings, CABAC : Yes
Format settings, ReFrames : 5 frames
Codec ID : V_MPEG4/ISO/AVC
Duration : 2h 3mn
Bit rate : 6 102 Kbps
Width : 1 280 pixels
Height : 544 pixels
Display aspect ratio : 2.35:1
Frame rate mode : Constant
Frame rate : 23.976 fps
Color space : YUV
Chroma subsampling : 4:2:0
Bit depth : 8 bits
Scan type : Progressive
Bits/(Pixel*Frame) : 0.365
Stream size : 5.11 GiB (70%)
Title : 8MM.1999.BDRip.720p
Writing library : x264 core 155 r2901 7d0ff22
Encoding settings : cabac=1 / ref=5 / deblock=1:-3:-3 / analyse=0x3:0x113 / me=umh / subme=8 / psy=1 / psy_rd=1.10:0.00 / mixed_ref=1 / me_range=24 / chroma_me=1 / trellis=2 / 8x8dct=1 / cqm=0 / deadzone=21,11 / fast_pskip=1 / chroma_qp_offset=-2 / threads=17 / lookahead_threads=2 / sliced_threads=0 / nr=0 / decimate=1 / interlaced=0 / bluray_compat=0 / constrained_intra=0 / bframes=3 / b_pyramid=2 / b_adapt=2 / b_bias=0 / direct=3 / weightb=1 / open_gop=0 / weightp=2 / keyint=240 / keyint_min=24 / scenecut=40 / intra_refresh=0 / rc_lookahead=50 / rc=2pass / mbtree=1 / bitrate=6102 / ratetol=1.0 / qcomp=0.60 / qpmin=0 / qpmax=69 / qpstep=4 / cplxblur=20.0 / qblur=0.5 / ip_ratio=1.40 / aq=3:0.75
Language : English
Default : Yes
Forced : Yes

Audio #1
ID : 2
Format : AC-3
Format/Info : Audio Coding 3
Mode extension : CM (complete main)
Format settings, Endianness : Big
Codec ID : A_AC3
Duration : 2h 3mn
Bit rate mode : Constant
Bit rate : 448 Kbps
Channel(s) : 6 channels
Channel positions : Front: L C R, Side: L R, LFE
Sampling rate : 48.0 KHz
Bit depth : 16 bits
Compression mode : Lossy
Stream size : 395 MiB (5%)
Title : DUB
Language : Russian
Default : Yes
Forced : Yes

Audio #2
ID : 3
Format : AC-3
Format/Info : Audio Coding 3
Mode extension : CM (complete main)
Format settings, Endianness : Big
Codec ID : A_AC3
Duration : 2h 3mn
Bit rate mode : Constant
Bit rate : 384 Kbps
Channel(s) : 6 channels
Channel positions : Front: L C R, Side: L R, LFE
Sampling rate : 48.0 KHz
Bit depth : 16 bits
Compression mode : Lossy
Stream size : 339 MiB (5%)
Title : MVO
Language : Russian
Default : No
Forced : No

Audio #3
ID : 4
Format : DTS
Format/Info : Digital Theater Systems
Mode : 16
Format settings, Endianness : Big
Codec ID : A_DTS
Duration : 2h 3mn
Bit rate mode : Constant
Bit rate : 1 509 Kbps
Channel(s) : 2 channels
Channel positions : Front: L R
Sampling rate : 48.0 KHz
Bit depth : 24 bits
Compression mode : Lossy
Stream size : 1.30 GiB (18%)
Title : Original
Language : English
Default : No
Forced : No

Text #1
ID : 5
Format : UTF-8
Codec ID : S_TEXT/UTF8
Codec ID/Info : UTF-8 Plain Text
Language : Russian
Default : No
Forced : No

Text #2
ID : 6
Format : UTF-8
Codec ID : S_TEXT/UTF8
Codec ID/Info : UTF-8 Plain Text
Language : English
Default : No
Forced : No

Menu
00:00:00.000 : en:00:00:00.000
00:00:03.837 : en:00:00:03.837
00:00:27.653 : en:00:00:27.653
00:14:46.844 : en:00:14:46.844
00:30:36.168 : en:00:30:36.168
00:39:56.853 : en:00:39:56.853
00:51:53.902 : en:00:51:53.902
01:00:14.277 : en:01:00:14.277
01:13:22.732 : en:01:13:22.732
01:21:46.735 : en:01:21:46.735
01:28:36.895 : en:01:28:36.895
01:42:48.662 : en:01:42:48.662
01:49:14.339 : en:01:49:14.339
02:00:15.041 : en:02:00:15.041

Правила, инструкции, FAQ!!!
Торрент  Добавлен [02 май 2018, 21:46] Скачать торрент Магнет ссылка
Скачать торрент
[ Размер 37.37 КБ / Просмотров 59 ]

Статус
Проверен 
 
Размер  7.28 ГБ
Приватный: Нет (DHT включён)
.torrent скачан  93
Как залить торрент? | Как скачать Torrent? | Ошибка в торренте? Качайте магнет  


     Отправить личное сообщение
   
Страница 1 из 1
Показать сообщения за:  Поле сортировки  
Начать новую тему Ответить на тему

   Похожие торренты   Автор   Ответы   Просмотры   Последнее сообщение 
В этой теме нет новых непрочитанных сообщений. Скачать торрент Проверен 8 миллиметров / 8MM (1999) HDRip | D

в форуме Триллеры, Размер: 1.45 ГБ, Здоровье: 100%

Anonymous

0
19|2

82
0

01 ноя 2014, 13:54

Anonymous Перейти к последнему сообщению

В этой теме нет новых непрочитанных сообщений. Скачать торрент Проверен Догма / Dogma (1999) BDRip 720p | D, 6 x A

в форуме 720p | 1080p, Размер: 7.44 ГБ, Здоровье: 100%

Гость

0
67|51

80
118

03 янв 2015, 16:59

Гость Перейти к последнему сообщению

В этой теме нет новых непрочитанных сообщений. Скачать торрент Проверен Инферно / Inferno (1999) BDRip 720p | P2, A3

в форуме 720p | 1080p, Размер: 6.77 ГБ, Здоровье: 100%

Гость

0
26|13

196
83

17 окт 2015, 18:27

Гость Перейти к последнему сообщению

В этой теме нет новых непрочитанных сообщений. Скачать торрент Магнолия / Magnolia (1999) BDRip 720p

в форуме 720p | 1080p, Размер: 7.76 ГБ, Здоровье: 100%

Anonymous

0
1|0

39
0

03 ноя 2013, 00:27

Anonymous Перейти к последнему сообщению

В этой теме нет новых непрочитанных сообщений. Скачать торрент Проверен Коррупционер / The Corruptor (1999) BDRip 720p | D, P2, A

в форуме 720p | 1080p, Размер: 5.75 ГБ, Здоровье: 100%

Гость

0
46|29

60
56

07 сен 2014, 21:56

Гость Перейти к последнему сообщению



Сейчас этот форум просматривают: нет зарегистрированных пользователей и гости: 0


Вы не можете начинать темы
Вы не можете отвечать на сообщения
Вы не можете редактировать свои сообщения
Вы не можете удалять свои сообщения
Вы не можете добавлять вложения

Перейти:  
Ресурс не предоставляет электронные версии произведений, а занимается лишь коллекционированием и каталогизацией ссылок, присылаемых и публикуемых на форуме нашими читателями. Если вы являетесь правообладателем какого-либо представленного материала и не желаете чтобы ссылка на него находилась в нашем каталоге, свяжитесь с нами и мы незамедлительно удалим её. Файлы для обмена на трекере предоставлены пользователями сайта, и администрация не несёт ответственности за их содержание. Просьба не заливать файлы, защищенные авторскими правами, а также файлы нелегального содержания!
cron