На всех торрентах на трекере установлена скидка на скачивание в размере 100 процентов(а).
 Возможность скачивания торрента НЕ зависит от ограничений при низком ратио, низком аплоаде, требуемом ратио или требуемом аплоаде.


Начать новую тему Ответить на тему
Статистика раздачи
Размер: 17.99 ГБ | Добавлен: 08 апр 2018, 19:43 | Скачали: 0
Сидеров: 1  [0 байт/сек]    Личеров: 0  [0 байт/сек]
Пред. тема | След. тема 

Автор
Сообщение

СообщениеДобавлено: 08 апр 2018, 19:43 

Ответить с цитатой 

Производство: США / Mediana Productions Filmgesellschaft
Жанр: триллер, драма, криминал

Режиссер: Алехандро Гонсалес Иньярриту
Продюсер: Роберт Салерно, Гильермо Арриага, Тед Хоуп
Актеры: Шон Пенн, Бенисио Дель Торо, Наоми Уоттс, Дэнни Хьюстон, Карли Наон, Клер Пакис, Ник Николс, Шарлотта Генсбур, Джон Рубинстайн, Эдди Марсан, Ллойд Кит Сэлтер, Мелисса Лео

Описание:
Говорят, что каждый человек в момент смерти теряет 21 грамм. Столько весит горстка монет в пять центов, плитка шоколада, птица колибри…
«21 грамм» — это история о надежде и человечности, жизнелюбии и выживании. Независимо от того, боитесь вы смерти или нет, она приходит, и в этот момент ваше тело становится на 21 грамм легче. Быть может, это вес человеческой души?



Релиз от: Heisenberg & Дядя Шарик | NNMClub
Продолжительность: 02:04:31
Качество: BDRip 1080p
Перевод: Дублированный (Лицензия), Профессиональный (многоголосый) (Tycoon), (Лиц. MVO R1, R1 - переиздание), Авторский (М. Яроцкий - присутствует ненормативная лексика)
Субтитры: Русские, английские

Видео: H.264/AVC, 1920x1040, (1.85:1), ~16.0 Mbps, 23.976 fps
Аудио 1: DTS, 6 ch, 1509 kbps - Русский, Дубляж
Аудио 2: AC3, 6 ch, 448 kbps - Русский, MVO Tycoon
Аудио 3: AC3, 6 ch, 384 kbps - Русский, MVO R1, сигнатура DVD 21 Grams DVD-602
Аудио 4: AC3, 6 ch, 384 kbps - Русский, MVO R1, сигнатура DVD NKO1196
Аудио 5: AC3, 6 ch, 448 kbps - Русский, AVO М. Яроцкий
Аудио 6: DTS, 6 ch, 1509 kbps - Английский

General
Unique ID : 211107883220548129593108066825170611860 (0x9ED1E63DB4DA08DCA4FA5C6D27906E94)
Complete name : S:21 Grams.2003.BDRip.1080p.NNMClub.mkv
Format : Matroska
Format version : Version 4 / Version 2
File size : 18.0 GiB
Duration : 2 h 4 min
Overall bit rate : 20.7 Mb/s
Movie name : 21 Grams | NNMClub
Encoded date : UTC 2018-04-08 09:57:05
Writing application : mkvmerge v22.0.0 ('At The End Of The World') 64-bit
Writing library : libebml v1.3.5 + libmatroska v1.4.8
Cover : Yes
Attachments : Cover.jpg

Video
ID : 1
Format : AVC
Format/Info : Advanced Video Codec
Format profile : High@L4.1
Format settings : CABAC / 4 Ref Frames
Format settings, CABAC : Yes
Format settings, ReFrames : 4 frames
Codec ID : V_MPEG4/ISO/AVC
Duration : 2 h 4 min
Bit rate : 16.0 Mb/s
Width : 1 920 pixels
Height : 1 040 pixels
Display aspect ratio : 1.85:1
Frame rate mode : Constant
Frame rate : 23.976 (24000/1001) FPS
Color space : YUV
Chroma subsampling : 4:2:0
Bit depth : 8 bits
Scan type : Progressive
Bits/(Pixel*Frame) : 0.334
Stream size : 13.9 GiB (77%)
Writing library : x264 core 155 r2901 7d0ff22
Encoding settings : cabac=1 / ref=4 / deblock=1:-2:-2 / analyse=0x3:0x133 / me=umh / subme=11 / psy=1 / psy_rd=1.00:0.10 / mixed_ref=1 / me_range=32 / chroma_me=1 / trellis=2 / 8x8dct=1 / cqm=0 / deadzone=21,11 / fast_pskip=0 / chroma_qp_offset=-3 / threads=18 / lookahead_threads=4 / sliced_threads=0 / nr=0 / decimate=1 / interlaced=0 / bluray_compat=0 / constrained_intra=0 / bframes=12 / b_pyramid=2 / b_adapt=2 / b_bias=0 / direct=3 / weightb=1 / open_gop=0 / weightp=2 / keyint=240 / keyint_min=23 / scenecut=40 / intra_refresh=0 / rc_lookahead=50 / rc=2pass / mbtree=0 / bitrate=16000 / ratetol=1.0 / qcomp=0.60 / qpmin=0 / qpmax=69 / qpstep=4 / cplxblur=20.0 / qblur=0.5 / vbv_maxrate=50000 / vbv_bufsize=62500 / nal_hrd=none / filler=0 / ip_ratio=1.40 / pb_ratio=1.30 / aq=1:1.00
Language : English
Default : Yes
Forced : No

Audio #1
ID : 2
Format : DTS
Format/Info : Digital Theater Systems
Codec ID : A_DTS
Duration : 2 h 4 min
Bit rate mode : Constant
Bit rate : 1 509 kb/s
Channel(s) : 6 channels
Channel positions : Front: L C R, Side: L R, LFE
Sampling rate : 48.0 kHz
Frame rate : 93.750 FPS (512 SPF)
Bit depth : 24 bits
Compression mode : Lossy
Stream size : 1.31 GiB (7%)
Title : DUB
Language : Russian
Default : Yes
Forced : No

Audio #2
ID : 3
Format : AC-3
Format/Info : Audio Coding 3
Codec ID : A_AC3
Duration : 2 h 4 min
Bit rate mode : Constant
Bit rate : 448 kb/s
Channel(s) : 6 channels
Channel positions : Front: L C R, Side: L R, LFE
Sampling rate : 48.0 kHz
Frame rate : 31.250 FPS (1536 SPF)
Bit depth : 16 bits
Compression mode : Lossy
Stream size : 399 MiB (2%)
Title : MVO 1 (Tycoon) AC3 5.1 448 kbps
Language : Russian
Service kind : Complete Main
Default : No
Forced : No

Audio #3
ID : 4
Format : AC-3
Format/Info : Audio Coding 3
Codec ID : A_AC3
Duration : 2 h 4 min
Bit rate mode : Constant
Bit rate : 384 kb/s
Channel(s) : 6 channels
Channel positions : Front: L C R, Side: L R, LFE
Sampling rate : 48.0 kHz
Frame rate : 31.250 FPS (1536 SPF)
Bit depth : 16 bits
Compression mode : Lossy
Stream size : 342 MiB (2%)
Title : MVO 2 (R1) AC3 5.1 384 kbps
Language : Russian
Service kind : Complete Main
Default : No
Forced : No

Audio #4
ID : 5
Format : AC-3
Format/Info : Audio Coding 3
Codec ID : A_AC3
Duration : 2 h 4 min
Bit rate mode : Constant
Bit rate : 384 kb/s
Channel(s) : 6 channels
Channel positions : Front: L C R, Side: L R, LFE
Sampling rate : 48.0 kHz
Frame rate : 31.250 FPS (1536 SPF)
Bit depth : 16 bits
Compression mode : Lossy
Stream size : 342 MiB (2%)
Title : MVO 3 (R1) AC3 5.1 384 kbps
Language : Russian
Service kind : Complete Main
Default : No
Forced : No

Audio #5
ID : 6
Format : AC-3
Format/Info : Audio Coding 3
Codec ID : A_AC3
Duration : 2 h 4 min
Bit rate mode : Constant
Bit rate : 448 kb/s
Channel(s) : 6 channels
Channel positions : Front: L C R, Side: L R, LFE
Sampling rate : 48.0 kHz
Frame rate : 31.250 FPS (1536 SPF)
Bit depth : 16 bits
Compression mode : Lossy
Stream size : 399 MiB (2%)
Title : AVO - Яроцкий
Language : Russian
Service kind : Complete Main
Default : No
Forced : No

Audio #6
ID : 7
Format : DTS
Format/Info : Digital Theater Systems
Codec ID : A_DTS
Duration : 2 h 4 min
Bit rate mode : Constant
Bit rate : 1 509 kb/s
Channel(s) : 6 channels
Channel positions : Front: L C R, Side: L R, LFE
Sampling rate : 48.0 kHz
Frame rate : 93.750 FPS (512 SPF)
Bit depth : 16 bits
Compression mode : Lossy
Stream size : 1.31 GiB (7%)
Title : Original
Language : English
Default : No
Forced : No

Text #1
ID : 8
Format : UTF-8
Codec ID : S_TEXT/UTF8
Codec ID/Info : UTF-8 Plain Text
Duration : 1 h 58 min
Bit rate : 70 b/s
Count of elements : 1026
Stream size : 61.1 KiB (0%)
Title : Full
Language : Russian
Default : Yes
Forced : No

Text #2
ID : 9
Format : UTF-8
Codec ID : S_TEXT/UTF8
Codec ID/Info : UTF-8 Plain Text
Duration : 2 h 3 min
Bit rate : 47 b/s
Count of elements : 1227
Stream size : 43.0 KiB (0%)
Title : Full
Language : English
Default : No
Forced : No

Menu
00:00:00.000 : en:1. Mom Is Waiting for Us
00:04:03.535 : en:2. So This Is Death's Waiting Room?
00:07:17.103 : en:3. Jesus Is Our Hope
00:11:20.972 : en:4. Call an Ambulance
00:14:30.745 : en:5. Washing the Past
00:18:32.111 : en:6. There's No Hitting in This House
00:22:11.455 : en:7. Nobody Saw Him
00:26:51.944 : en:8. Have You Been Drinking?
00:31:30.806 : en:9. Heart-to-Heart
00:38:35.188 : en:10. Duty Bound
00:43:18.930 : en:11. The First Day of My New Life
00:45:32.521 : en:12. Life Does Not Go On
00:49:52.990 : en:13. Original Owner
00:52:48.415 : en:14. Bled Dry
00:54:51.455 : en:15. God Even Knows When a Single Hair Moves...
00:57:00.751 : en:16. Going to Heaven
00:59:47.417 : en:17. Your Friend
01:03:26.511 : en:18. Did You Bring What I Asked You For?
01:06:06.838 : en:19. Making Plans
01:10:44.907 : en:20. Coming Home
01:14:53.614 : en:21. Hidden Numbers
01:16:33.047 : en:22. You Shouldn't Have Done It
01:20:47.259 : en:23. Can I See You Again?
01:24:28.063 : en:24. A Good Heart
01:36:01.923 : en:25. Lack of Evidence
01:39:50.109 : en:26. Daddy, a Pigeon!
01:43:22.822 : en:27. Despair
01:45:18.145 : en:28. Red Shoelaces
01:49:31.690 : en:29. You're Pregnant
01:50:28.121 : en:30. How Many Times?
01:55:34.302 : en:31. 21 Grams
01:58:18.133 : en:32. End Titles

Скриншоты:
Правила, инструкции, FAQ!!!
Торрент  Добавлен [08 апр 2018, 19:43] Скачать торрент Магнет ссылка
Скачать торрент
[ Размер 90.76 КБ / Просмотров 99 ]

Статус
Проверен 
 
Размер  17.99 ГБ
Приватный: Нет (DHT включён)
.torrent скачан  0
Как залить торрент? | Как скачать Torrent? | Ошибка в торренте? Качайте магнет  


     Отправить личное сообщение
   
Страница 1 из 1
Показать сообщения за:  Поле сортировки  
Начать новую тему Ответить на тему

   Похожие торренты   Автор   Ответы   Просмотры   Последнее сообщение 
В этой теме нет новых непрочитанных сообщений. Скачать торрент Проверен 21 грамм / 21 Grams (2003) BDRip 1080p

в форуме 720p | 1080p, Размер: 11.54 ГБ, Здоровье: 100%

Anonymous

0
61|28

104
417

29 ноя 2014, 00:59

Anonymous Перейти к последнему сообщению

В этой теме нет новых непрочитанных сообщений. Скачать торрент 21 грамм / 21 Grams (2003) HDRip | D

в форуме Триллеры, Размер: 1.45 ГБ, Здоровье: 100%

Anonymous

0
9|0

52
6

17 ноя 2013, 22:37

Anonymous Перейти к последнему сообщению

В этой теме нет новых непрочитанных сообщений. Скачать торрент Проверен [iPhone] 21 грамм / 21 Grams (Алехандро Гонсалес Иньярриту /Alejandro Gonzalez Inarritu) [2003 г., Драма, HD-DVDRip]

в форуме Фильмы для iPod, iPhone, iPad, Размер: 918.13 МБ, Здоровье: 100%

Anonymous

0
10|2

167
2

18 май 2015, 10:54

Anonymous Перейти к последнему сообщению

В этой теме нет новых непрочитанных сообщений. Скачать торрент Проверен Подвиды / Subspecies (1991) BDRip-AVC от k.e.n & NNMClub | A

в форуме Ужасы, Размер: 2.18 ГБ, Здоровье: 100%

Anonymous

0
40|12

106
198

25 окт 2017, 22:36

Anonymous Перейти к последнему сообщению

В этой теме нет новых непрочитанных сообщений. Скачать торрент Проверен Подвиды 3: Жажда Крови / Bloodlust: Subspecies III (1994) BDRip-AVC от k.e.n & NNMClub | A

в форуме Ужасы, Размер: 2.18 ГБ, Здоровье: 100%

Anonymous

0
33|9

87
124

25 окт 2017, 22:40

Anonymous Перейти к последнему сообщению



Сейчас этот форум просматривают: нет зарегистрированных пользователей и гости: 0


Вы не можете начинать темы
Вы не можете отвечать на сообщения
Вы не можете редактировать свои сообщения
Вы не можете удалять свои сообщения
Вы не можете добавлять вложения

Перейти:  
Ресурс не предоставляет электронные версии произведений, а занимается лишь коллекционированием и каталогизацией ссылок, присылаемых и публикуемых на форуме нашими читателями. Если вы являетесь правообладателем какого-либо представленного материала и не желаете чтобы ссылка на него находилась в нашем каталоге, свяжитесь с нами и мы незамедлительно удалим её. Файлы для обмена на трекере предоставлены пользователями сайта, и администрация не несёт ответственности за их содержание. Просьба не заливать файлы, защищенные авторскими правами, а также файлы нелегального содержания!
cron