На всех торрентах на трекере установлена скидка на скачивание в размере 100 процентов(а).
 Возможность скачивания торрента НЕ зависит от ограничений при низком ратио, низком аплоаде, требуемом ратио или требуемом аплоаде.


Начать новую тему Ответить на тему
Статистика раздачи
Размер: 8.75 ГБ | Добавлен: 21 окт 2014, 20:59 | Скачали: 3
Сидеров: 37  [0 байт/сек]    Личеров: 10  [0 байт/сек]
Пред. тема | След. тема 

Автор
Сообщение

СообщениеДобавлено: 21 окт 2014, 20:59 

Ответить с цитатой 

20 декабря
02.10.14 торрент обновлен, добавлены серии 3, 4
Жанр: историко-революционный
Год выпуска: 1981
Продолжительность: 01:04:49 + 01:04:22 + 01:02:46 + 01:03:34

Режиссёр: Григорий Никулин

В ролях: Кирилл Лавров, Михаил Козаков, Владимир Дюков-Самарский, Андрей Толубеев, Игорь Комаров, Владимир Свекольников, Виктор (Вилли) Бурхарт, Виктор Костецкий, Эрнст Романов, Владимир Головин, Эммануил Виторган, Сергей Десницкий, Геннадий Бортников, Владимир Эренберг, Лев Иванов, Вадим Ермолаев, Николай Крюков, Николай Мартон, Анатолий Рудаков, Георгий Дрозд

Описание: Фильм посвящается первым чекистам и снят по сценарию Юлиана Семёнова. 1917 год. Время смятений - "военная диктатура". Для организации порядка в стране и борьбы с контрреволюцией и саботажем создана ВЧК, будущее КГБ...

1-я серия - "Военная диктатура?.."
2-я серия - "Саботаж"
3-я серия - "Террор"
4-я серия - "ВЧК"


Качество видео: DVB
Формат видео: MPEG-PS

Видео: MPEG2 Video, 720(768)x576 (4:3), 25,000 кадров/сек, 4840 Кбит/сек
Аудио: MPEG Audio, 48,0 КГц, 192 Кбит/сек, 2 канала
Общее
Полное имя : E:\Torrent\20 декабря\20 декабря 1 (ZVEZDA 49).mpg
Формат : MPEG-PS
Размер файла : 2,31 Гбайт
Продолжительность : 1 ч. 4 м.
Режим общего битрейта : Переменный
Общий поток : 5095 Кбит/сек

Видео
Идентификатор : 224 (0xE0)
Формат : MPEG Video
Версия формата : Version 2
Профиль формата : Main@Main
Параметр BVOP формата : Да
Параметр матрицы формата : Выборочная
Параметр GOP формата : Variable
Продолжительность : 1 ч. 4 м.
Вид битрейта : Переменный
Битрейт : 4840 Кбит/сек
Ширина : 704 пикселя
Высота : 576 пикселей
Соотношение сторон : 4:3
Частота кадров : 25,000 кадров/сек
Стандарт вещания : PAL
Цветовое пространство : YUV
Субдискретизация насыщенности : 4:2:0
Битовая глубина : 8 бит
Тип развёртки : Чересстрочная
Порядок развёртки : Верхнее поле первое
Метод сжатия : С потерями
Бит/(Пиксели*Кадры) : 0.477
Временной код первого кадра : 00:00:00:00
Оригинал временного кода : Group of pictures header
Размер потока : 2,17 Гбайт (94%)

Аудио
Идентификатор : 192 (0xC0)
Формат : MPEG Audio
Версия формата : Version 1
Профиль формата : Layer 2
Продолжительность : 1 ч. 4 м.
Вид битрейта : Постоянный
Битрейт : 192 Кбит/сек
Каналы : 2 канала
Частота : 48,0 КГц
Метод сжатия : С потерями
Задержка видео : 16 мс.
Размер потока : 89,0 Мбайт (4%)

Общее
Полное имя : E:\Torrent\20 декабря\20 декабря 2 (ZVEZDA 49).mpg
Формат : MPEG-PS
Размер файла : 2,29 Гбайт
Продолжительность : 1 ч. 4 м.
Режим общего битрейта : Переменный
Общий поток : 5094 Кбит/сек

Видео
Идентификатор : 224 (0xE0)
Формат : MPEG Video
Версия формата : Version 2
Профиль формата : Main@Main
Параметр BVOP формата : Да
Параметр матрицы формата : Выборочная
Параметр GOP формата : Variable
Продолжительность : 1 ч. 4 м.
Вид битрейта : Переменный
Битрейт : 4840 Кбит/сек
Ширина : 704 пикселя
Высота : 576 пикселей
Соотношение сторон : 4:3
Частота кадров : 25,000 кадров/сек
Стандарт вещания : PAL
Цветовое пространство : YUV
Субдискретизация насыщенности : 4:2:0
Битовая глубина : 8 бит
Тип развёртки : Чересстрочная
Порядок развёртки : Верхнее поле первое
Метод сжатия : С потерями
Бит/(Пиксели*Кадры) : 0.477
Временной код первого кадра : 00:00:00:00
Оригинал временного кода : Group of pictures header
Размер потока : 2,16 Гбайт (94%)

Аудио
Идентификатор : 192 (0xC0)
Формат : MPEG Audio
Версия формата : Version 1
Профиль формата : Layer 2
Продолжительность : 1 ч. 4 м.
Вид битрейта : Постоянный
Битрейт : 192 Кбит/сек
Каналы : 2 канала
Частота : 48,0 КГц
Метод сжатия : С потерями
Задержка видео : 16 мс.
Размер потока : 88,4 Мбайт (4%)

Общее
Полное имя : E:\Torrent\20 декабря\20 декабря 3 (ZVEZDA 55).mpg
Формат : MPEG-PS
Размер файла : 2,07 Гбайт
Продолжительность : 1 ч. 2 м.
Режим общего битрейта : Переменный
Общий поток : 4710 Кбит/сек

Видео
Идентификатор : 224 (0xE0)
Формат : MPEG Video
Версия формата : Version 2
Профиль формата : Main@Main
Параметр BVOP формата : Да
Параметр матрицы формата : Выборочная
Параметр GOP формата : M=3, N=12
Продолжительность : 1 ч. 2 м.
Вид битрейта : Переменный
Битрейт : 4425 Кбит/сек
Максимальный битрейт : 15,0 Мбит/сек
Ширина : 720 пикселей
Высота : 576 пикселей
Соотношение сторон : 4:3
Частота кадров : 25,000 кадров/сек
Стандарт вещания : PAL
Цветовое пространство : YUV
Субдискретизация насыщенности : 4:2:0
Битовая глубина : 8 бит
Тип развёртки : Чересстрочная
Порядок развёртки : Верхнее поле первое
Метод сжатия : С потерями
Бит/(Пиксели*Кадры) : 0.427
Временной код первого кадра : 00:00:00:00
Оригинал временного кода : Group of pictures header
Размер потока : 1,94 Гбайт (94%)

Аудио
Идентификатор : 192 (0xC0)
Формат : MPEG Audio
Версия формата : Version 1
Профиль формата : Layer 2
Продолжительность : 1 ч. 2 м.
Вид битрейта : Постоянный
Битрейт : 192 Кбит/сек
Каналы : 2 канала
Частота : 48,0 КГц
Метод сжатия : С потерями
Задержка видео : 19 мс.
Размер потока : 86,2 Мбайт (4%)

Общее
Полное имя : E:\Torrent\20 декабря\20 декабря 4 (ZVEZDA 55).mpg
Формат : MPEG-PS
Размер файла : 2,09 Гбайт
Продолжительность : 1 ч. 3 м.
Режим общего битрейта : Переменный
Общий поток : 4710 Кбит/сек

Видео
Идентификатор : 224 (0xE0)
Формат : MPEG Video
Версия формата : Version 2
Профиль формата : Main@Main
Параметр BVOP формата : Да
Параметр матрицы формата : Выборочная
Параметр GOP формата : M=3, N=12
Продолжительность : 1 ч. 3 м.
Вид битрейта : Переменный
Битрейт : 4425 Кбит/сек
Максимальный битрейт : 15,0 Мбит/сек
Ширина : 720 пикселей
Высота : 576 пикселей
Соотношение сторон : 4:3
Частота кадров : 25,000 кадров/сек
Стандарт вещания : PAL
Цветовое пространство : YUV
Субдискретизация насыщенности : 4:2:0
Битовая глубина : 8 бит
Тип развёртки : Чересстрочная
Порядок развёртки : Верхнее поле первое
Метод сжатия : С потерями
Бит/(Пиксели*Кадры) : 0.427
Временной код первого кадра : 00:00:00:00
Оригинал временного кода : Group of pictures header
Размер потока : 1,96 Гбайт (94%)

Аудио
Идентификатор : 192 (0xC0)
Формат : MPEG Audio
Версия формата : Version 1
Профиль формата : Layer 2
Продолжительность : 1 ч. 3 м.
Вид битрейта : Постоянный
Битрейт : 192 Кбит/сек
Каналы : 2 канала
Частота : 48,0 КГц
Метод сжатия : С потерями
Задержка видео : 3 мс.
Размер потока : 87,3 Мбайт (4%)
загрузка...
Правила, инструкции, FAQ!!!
Торрент  Добавлен [21 окт 2014, 20:59] Скачать торрент Магнет ссылка
Скачать торрент
[ Размер 22.62 КБ / Просмотров 58 ]

Статус
Проверен 
 
Размер  8.75 ГБ
Приватный: Нет (DHT включён)
.torrent скачан  3
Как залить торрент? | Как скачать Torrent? | Ошибка в торренте? Качайте магнет  


     Отправить личное сообщение
   
Страница 1 из 1
Показать сообщения за:  Поле сортировки  
Начать новую тему Ответить на тему

   Похожие торренты   Автор   Ответы   Просмотры   Последнее сообщение 
В этой теме нет новых непрочитанных сообщений. Скачать торрент Проверен Послезавтра, в полночь (Ариф Бабаев) [1981, историко-революционный, TVRip]

в форуме Кино СССР, Размер: 934.8 МБ, Здоровье: 8%

Anonymous

0
5|56

145
0

21 окт 2014, 20:57

Anonymous Перейти к последнему сообщению

В этой теме нет новых непрочитанных сообщений. Скачать торрент Проверен Тайна забытой переправы (Сухбат Хамидов) [1973, Историко-революционный боевик, VHSRip]

в форуме Кино СССР, Размер: 1.22 ГБ, Здоровье: 100%

Anonymous

0
95|28

118
5

21 окт 2014, 20:57

Anonymous Перейти к последнему сообщению

В этой теме нет новых непрочитанных сообщений. Скачать торрент Проверен Григорий Медынский - Собрание произведений. [1973 - 1981, PDF, RUS]

в форуме Русская литература, Размер: 19.14 МБ, Здоровье: 62%

Anonymous

0
5|8

253
6

08 сен 2016, 18:02

Anonymous Перейти к последнему сообщению

В этой теме нет новых непрочитанных сообщений. Скачать торрент Проверен Федосеев Григорий Анисимович - Злой дух Ямбуя [Дунаев Григорий, 2015 г., 96 kbps, MP3]

в форуме Детектив и Боевики, Размер: 598.78 МБ, Здоровье: 100%

Anonymous

0
10|3

94
0

04 май 2016, 22:49

Anonymous Перейти к последнему сообщению

В этой теме нет новых непрочитанных сообщений. Скачать торрент Проверен Пол Э. Бэндхейм | Революционный тренинг мозга (2011) [PDF]

в форуме Популярная психология, Размер: 44.53 МБ, Здоровье: 100%

Гость

0
170|8

179
22

19 янв 2016, 21:02

Гость Перейти к последнему сообщению



Сейчас этот форум просматривают: нет зарегистрированных пользователей и гости: 0


Вы не можете начинать темы
Вы не можете отвечать на сообщения
Вы не можете редактировать свои сообщения
Вы не можете удалять свои сообщения
Вы не можете добавлять вложения

Перейти:  
Ресурс не предоставляет электронные версии произведений, а занимается лишь коллекционированием и каталогизацией ссылок, присылаемых и публикуемых на форуме нашими читателями. Если вы являетесь правообладателем какого-либо представленного материала и не желаете чтобы ссылка на него находилась в нашем каталоге, свяжитесь с нами и мы незамедлительно удалим её. Файлы для обмена на трекере предоставлены пользователями сайта, и администрация не несёт ответственности за их содержание. Просьба не заливать файлы, защищенные авторскими правами, а также файлы нелегального содержания!
cron